<?xml version="1.0" standalone="no"?>
<!DOCTYPE svg PUBLIC "-//W3C//DTD SVG 1.1//EN" "http://www.w3.org/Graphics/SVG/1.1/DTD/svg11.dtd" >
<svg xmlns="http://www.w3.org/2000/svg" xmlns:xlink="http://www.w3.org/1999/xlink" version="1.1">
<metadata>
Created by FontForge 20170731 at Tue Apr  5 15:57:40 2016
 By Aleksey,,,
(c) 2014 Adobe Systems Incorporated. All Rights Reserved.
</metadata>
<defs>
<font id="AcuminPro-Regular" horiz-adv-x="400" >
  <font-face 
    font-family="Acumin Pro"
    font-weight="400"
    font-stretch="normal"
    units-per-em="1000"
    panose-1="2 11 5 4 2 2 2 2 2 4"
    ascent="735"
    descent="-265"
    x-height="507"
    cap-height="696"
    bbox="-183 -262 1225 1042"
    underline-thickness="50"
    underline-position="-150"
    unicode-range="U+0020-FB02"
  />
<missing-glyph horiz-adv-x="500" 
d="M0 0v700h500v-700h-500zM250 395l170 255h-340zM280 350l170 -255v510zM80 50h340l-170 255zM50 605v-510l170 255z" />
    <glyph glyph-name="f_f" unicode="ff" horiz-adv-x="555" 
d="M362 436h-184v-436h-88v436h-81v71h81v60q0 177 147 177q32 0 50 -7v-73q-20 6 -42 6q-36 0 -51.5 -24t-15.5 -76v-63h184v60q0 177 147 177q32 0 50 -7v-73q-19 6 -42 6q-36 0 -51.5 -24t-15.5 -76v-63h100v-71h-100v-436h-88v436z" />
    <glyph glyph-name=".notdef" horiz-adv-x="500" 
d="M0 0v700h500v-700h-500zM250 395l170 255h-340zM280 350l170 -255v510zM80 50h340l-170 255zM50 605v-510l170 255z" />
    <glyph glyph-name=".null" horiz-adv-x="0" 
 />
    <glyph glyph-name="nonmarkingreturn" horiz-adv-x="333" 
 />
    <glyph glyph-name="space" unicode=" " horiz-adv-x="253" 
 />
    <glyph glyph-name="exclam" unicode="!" horiz-adv-x="303" 
d="M217 234h-74l-10 340v122h94v-123zM222 -1h-87v138h87v-138z" />
    <glyph glyph-name="quotedbl" unicode="&#x22;" horiz-adv-x="345" 
d="M124 465h-65l-9 184v85h83v-85zM286 465h-65l-8 184v85h83v-85z" />
    <glyph glyph-name="numbersign" unicode="#" horiz-adv-x="591" 
d="M279 0l48 198h-132l-47 -198h-68l48 198h-88v73h106l38 155h-96v72h113l43 177h65l-42 -177h133l43 177h64l-42 -177h83l-1 -72h-99l-37 -155h91v-73h-108l-47 -198h-68zM345 271l38 155h-133l-37 -155h132z" />
    <glyph glyph-name="dollar" unicode="$" horiz-adv-x="520" 
d="M127 499q0 -38 21.5 -62.5t76.5 -43.5v203q-51 -4 -74.5 -31t-23.5 -66zM388 170q0 42 -23 70t-83 49v-226q106 11 106 107zM282 -97h-57v91q-88 7 -140 55t-60 122h88q10 -45 39.5 -72.5t72.5 -34.5v242q-100 30 -142.5 72t-42.5 111q0 75 51.5 122.5t133.5 52.5v68h57
v-69q90 -9 133 -56.5t49 -104.5h-86q-21 78 -96 92v-218q110 -32 153.5 -79t43.5 -118q0 -82 -52 -130t-145 -55v-91z" />
    <glyph glyph-name="percent" unicode="%" horiz-adv-x="878" 
d="M206 670q77 0 122 -50t45 -137q0 -83 -44 -136t-125 -53q-78 0 -121.5 50.5t-43.5 137.5q0 80 44 134t123 54zM205 606q-42 0 -66.5 -32.5t-24.5 -90.5t24 -91.5t69 -33.5q44 0 68.5 33t24.5 92q0 58 -25 90.5t-70 32.5zM267 0h-75l428 658h75zM680 363q78 0 123 -50
t45 -137q0 -83 -44 -135.5t-125 -53.5q-79 0 -122.5 51.5t-43.5 136.5q0 81 44 134.5t123 53.5zM680 299q-41 0 -66.5 -33t-25.5 -90t24.5 -91t69.5 -34q43 0 67.5 33t24.5 92q0 58 -25 90.5t-69 32.5z" />
    <glyph glyph-name="ampersand" unicode="&#x26;" horiz-adv-x="745" 
d="M255 68q48 0 83.5 20.5t78.5 75.5l-170 167q-61 -40 -83.5 -72.5t-22.5 -75.5q0 -47 33 -81t81 -34zM602 441h94l-177 -260l184 -181h-119l-114 112q-50 -63 -99.5 -92.5t-122.5 -29.5q-92 0 -145 55.5t-53 128.5q0 61 33 107t117 98q-43 45 -63 79t-20 79q0 71 47 120
t128 49q75 0 121.5 -46.5t46.5 -113.5q0 -51 -31.5 -90t-104.5 -83l141 -139zM291 638q-41 0 -65.5 -25.5t-24.5 -70.5q0 -29 18 -57t59 -68q59 39 79.5 66t20.5 62q0 39 -23 66t-64 27z" />
    <glyph glyph-name="quotesingle" unicode="'" horiz-adv-x="178" 
d="M125 465h-72l-8 184v85h88v-85z" />
    <glyph glyph-name="parenleft" unicode="(" horiz-adv-x="337" 
d="M209 734h89q-158 -207 -158 -447q0 -251 158 -459h-89q-151 201 -151 460q0 248 151 446z" />
    <glyph glyph-name="parenright" unicode=")" horiz-adv-x="337" 
d="M129 -172h-90q158 207 158 447q0 251 -158 459h90q150 -202 150 -460q0 -247 -150 -446z" />
    <glyph glyph-name="asterisk" unicode="*" horiz-adv-x="401" 
d="M164 696h72l-13 -148l115 92l39 -65l-141 -64l140 -65l-38 -66l-116 94l15 -150h-74l14 150l-114 -94l-38 66l140 65l-141 64l39 65l113 -92z" />
    <glyph glyph-name="plus" unicode="+" horiz-adv-x="699" 
d="M310 556h79v-236h234v-78h-234v-242h-79v242h-235v78h235v236z" />
    <glyph glyph-name="comma" unicode="," horiz-adv-x="210" 
d="M75 -115h-72q62 130 72 262h89q-16 -157 -89 -262z" />
    <glyph glyph-name="hyphen" unicode="-" horiz-adv-x="378" 
d="M58 296h262v-80h-262v80z" />
    <glyph glyph-name="period" unicode="." horiz-adv-x="203" 
d="M147 0h-92v148h92v-148z" />
    <glyph glyph-name="slash" unicode="/" horiz-adv-x="447" 
d="M123 -51h-78l279 757h79z" />
    <glyph glyph-name="zero" unicode="0" horiz-adv-x="559" 
d="M282 670q51 0 91 -19t65.5 -50.5t41.5 -76t22.5 -91t6.5 -99.5q0 -67 -10.5 -124t-35 -109.5t-71.5 -82.5t-113 -30q-65 0 -111.5 28.5t-71.5 79t-36 108t-11 125.5q0 67 12 125t37.5 108t72.5 79t111 29zM283 595q-55 0 -87.5 -38t-43 -93t-10.5 -135q0 -266 138 -266
q42 0 70 22t42 63t19.5 84.5t5.5 100.5q0 262 -134 262z" />
    <glyph glyph-name="one" unicode="1" horiz-adv-x="364" 
d="M266 0h-90v553q-23 -17 -65 -34.5t-71 -22.5v71q86 24 160 94h66v-661z" />
    <glyph glyph-name="two" unicode="2" horiz-adv-x="525" 
d="M481 0h-436v5q0 147 198 297q84 63 109 95t25 84t-28.5 83.5t-85.5 31.5q-59 0 -89.5 -30t-41.5 -92h-86q9 88 64.5 142t152.5 54q103 0 154 -55t51 -132q0 -71 -32.5 -114t-131.5 -119q-133 -102 -155 -173h345z" />
    <glyph glyph-name="three" unicode="3" horiz-adv-x="550" 
d="M148 501h-85q10 70 61 119.5t148 49.5q96 0 147 -49.5t51 -121.5q0 -55 -25.5 -89t-61.5 -47v-2q50 -16 82.5 -57t32.5 -109q0 -87 -57 -147t-171 -60q-104 0 -160 53.5t-65 128.5h87q11 -48 46.5 -78.5t95.5 -30.5q67 0 100.5 37.5t33.5 95.5q0 128 -143 128h-47v72h39
q65 0 94.5 25t29.5 77q0 46 -29 73t-83 27q-98 0 -121 -95z" />
    <glyph glyph-name="four" unicode="4" horiz-adv-x="539" 
d="M429 0h-84v169h-309v80l299 409h94v-413h85l-9 -76h-76v-169zM345 245v166q0 73 2 159q-25 -49 -225 -325h223z" />
    <glyph glyph-name="five" unicode="5" horiz-adv-x="545" 
d="M480 658l-13 -76h-275q-11 -99 -29 -188q48 53 138 53t144 -59t54 -160q0 -104 -57 -172t-170 -68q-89 0 -147.5 47t-71.5 130h89q12 -47 45.5 -75.5t87.5 -28.5q66 0 100 43t34 118q0 68 -30.5 109t-96.5 41q-56 0 -86 -21.5t-49 -64.5l-82 15q29 123 54 357h361z" />
    <glyph glyph-name="six" unicode="6" horiz-adv-x="549" 
d="M485 515h-87q-23 83 -111 83q-145 0 -150 -243q53 92 167 92q93 0 147.5 -61t54.5 -158q0 -102 -58.5 -171t-163.5 -69q-235 0 -235 332q0 72 12.5 132t39.5 110.5t75.5 79t114.5 28.5q91 0 139 -47t55 -108zM283 62q67 0 99.5 45.5t32.5 113.5q0 65 -30 108.5t-99 43.5
q-63 0 -101 -39.5t-38 -111.5q0 -23 6.5 -48t20.5 -51.5t42.5 -43.5t66.5 -17z" />
    <glyph glyph-name="seven" unicode="7" horiz-adv-x="476" 
d="M21 658h432v-72q-88 -117 -159.5 -280t-95.5 -306h-91q22 136 96.5 304t156.5 277h-339v77z" />
    <glyph glyph-name="eight" unicode="8" horiz-adv-x="551" 
d="M272 -12q-98 0 -162.5 54t-64.5 144q0 64 35 107t85 62q-92 44 -92 139q0 79 54.5 127.5t153.5 48.5q91 0 145 -48.5t54 -125.5q0 -51 -24.5 -86t-66.5 -51q49 -16 83 -61.5t34 -108.5q0 -93 -65 -147t-169 -54zM276 61q64 0 102 33.5t38 95.5t-37 94.5t-103 32.5
q-69 0 -104.5 -35t-35.5 -92q0 -56 37.5 -92.5t102.5 -36.5zM278 597q-118 0 -118 -103q0 -44 30 -73t89 -29q114 0 114 99q0 46 -29.5 76t-85.5 30z" />
    <glyph glyph-name="nine" unicode="9" horiz-adv-x="541" 
d="M53 144h90q29 -82 117 -82q133 0 142 256q-44 -78 -157 -78q-92 0 -147 58.5t-55 150.5q0 94 60 157.5t162 63.5q116 0 170.5 -82t54.5 -221q0 -378 -233 -378q-91 0 -140.5 44.5t-63.5 110.5zM263 596q-64 0 -96.5 -39.5t-32.5 -103.5t34 -102t92 -38q132 0 132 136
q0 15 -2.5 31t-10.5 38t-21 38.5t-38 28t-57 11.5z" />
    <glyph glyph-name="colon" unicode=":" horiz-adv-x="250" 
d="M170 0h-89v145h89v-145zM170 361h-89v144h89v-144z" />
    <glyph glyph-name="semicolon" unicode=";" horiz-adv-x="252" 
d="M85 -115h-71q64 137 71 262h89q-5 -71 -31 -144.5t-58 -117.5zM173 358h-90v147h90v-147z" />
    <glyph glyph-name="less" unicode="&#x3c;" horiz-adv-x="615" 
d="M83 244v73l449 243v-87l-363 -192l363 -198v-87z" />
    <glyph glyph-name="equal" unicode="=" horiz-adv-x="713" 
d="M83 197h547v-78h-547v78zM83 446h547v-78h-547v78z" />
    <glyph glyph-name="greater" unicode="&#x3e;" horiz-adv-x="615" 
d="M532 312v-73l-449 -243v87l362 192l-362 199v86z" />
    <glyph glyph-name="question" unicode="?" horiz-adv-x="497" 
d="M294 210h-90v15q0 44 20 84t75 89q67 61 67 132q0 41 -27 72t-80 31q-101 0 -119 -114h-86q1 27 11.5 55.5t32 60t64 51.5t99.5 20q100 -1 147.5 -55.5t47.5 -122.5q0 -53 -21 -92.5t-75 -89.5q-37 -33 -51.5 -62t-14.5 -66v-8zM294 0h-90v138h90v-138z" />
    <glyph glyph-name="at" unicode="@" horiz-adv-x="935" 
d="M679 -51l19 -62q-89 -62 -245 -62q-172 0 -280.5 109.5t-108.5 291.5q0 192 119 317t315 125q160 0 267.5 -93t107.5 -256q0 -132 -62.5 -211t-160.5 -79q-96 0 -100 78q-53 -77 -142 -77q-63 0 -102.5 45t-39.5 129q0 114 60 192t146 78q54 0 82.5 -23t36.5 -54l17 67
h79l-60 -281q-20 -85 39 -85q58 0 94.5 60t36.5 157q0 131 -83 208.5t-219 77.5q-160 0 -255.5 -103.5t-96.5 -272.5q-1 -143 85.5 -236.5t228.5 -93.5q132 0 222 54zM481 407q-58 0 -94 -59t-36 -139q0 -53 20.5 -81.5t57.5 -28.5q96 0 130 150q35 158 -78 158z" />
    <glyph glyph-name="A" unicode="A" horiz-adv-x="660" 
d="M464 209h-277l-75 -209h-92l248 696h113l259 -696h-99zM211 288h230q-105 286 -118 333h-1q-12 -41 -111 -333z" />
    <glyph glyph-name="B" unicode="B" horiz-adv-x="646" 
d="M92 0v696h267q105 0 160 -49t55 -125q0 -58 -28.5 -97.5t-71.5 -54.5q47 -14 85 -55.5t38 -110.5q0 -96 -65 -150t-167 -54h-273zM182 406h159q140 0 140 108q0 48 -33 76.5t-93 28.5h-173v-213zM182 330v-254h172q68 0 108 32.5t40 95.5q0 126 -166 126h-154z" />
    <glyph glyph-name="C" unicode="C" horiz-adv-x="686" 
d="M550 197h93q-25 -94 -94.5 -150t-182.5 -56q-150 0 -231.5 100t-81.5 255q0 97 34 177t107.5 131.5t174.5 51.5q117 0 187 -58.5t87 -151.5h-92q-44 133 -185 133q-56 0 -98.5 -23.5t-67.5 -64t-37.5 -89t-12.5 -103.5q0 -54 12 -102t37 -89.5t69 -65.5t102 -24
q130 0 180 129z" />
    <glyph glyph-name="D" unicode="D" horiz-adv-x="721" 
d="M92 0v696h248q148 0 238 -93t90 -248q0 -156 -90.5 -255.5t-240.5 -99.5h-245zM184 617v-539h146q118 0 179.5 76t61.5 199q0 112 -60.5 188t-180.5 76h-146z" />
    <glyph glyph-name="E" unicode="E" horiz-adv-x="597" 
d="M528 404v-79h-346v-246h380l-12 -79h-458v696h453v-79h-363v-213h346z" />
    <glyph glyph-name="F" unicode="F" horiz-adv-x="564" 
d="M92 0v696h447v-79h-356v-226h333v-79h-333v-312h-91z" />
    <glyph glyph-name="G" unicode="G" horiz-adv-x="728" 
d="M656 376v-376h-71q-8 20 -9 94q-63 -103 -216 -103q-146 0 -226.5 98t-80.5 252q0 161 85.5 263t238.5 102q119 0 193.5 -58t89.5 -154h-92q-42 135 -193 135q-114 0 -169.5 -79t-55.5 -205q0 -75 21.5 -135.5t73 -101t126.5 -40.5q195 0 195 221v8h-196v79h286z" />
    <glyph glyph-name="H" unicode="H" horiz-adv-x="730" 
d="M92 0v696h92v-291h362v291h93v-696h-93v326h-362v-326h-92z" />
    <glyph glyph-name="I" unicode="I" horiz-adv-x="276" 
d="M92 696h92v-696h-92v696z" />
    <glyph glyph-name="J" unicode="J" horiz-adv-x="368" 
d="M281 696v-493q0 -114 -44 -163.5t-135 -49.5q-38 0 -73 7v77q22 -5 64 -5q57 0 76 34.5t19 96.5v496h93z" />
    <glyph glyph-name="K" unicode="K" horiz-adv-x="639" 
d="M92 0v696h91v-342q20 20 148.5 149t189.5 193h115l-299 -294l314 -402h-112l-267 343l-89 -81v-262h-91z" />
    <glyph glyph-name="L" unicode="L" horiz-adv-x="561" 
d="M92 0v696h92v-617h363l-13 -79h-442z" />
    <glyph glyph-name="M" unicode="M" horiz-adv-x="868" 
d="M686 0v296q0 212 5 334h-4q-9 -32 -25.5 -84t-44 -128t-47 -130.5t-56 -153t-49.5 -134.5h-83q-12 37 -51.5 152.5t-64.5 190t-53 161.5t-39 128h-3q8 -130 8 -355v-277h-87v696h137q161 -441 200 -583h1q26 101 213 583h133v-696h-90z" />
    <glyph glyph-name="N" unicode="N" horiz-adv-x="744" 
d="M179 0h-87v696h122q22 -36 119 -193t158.5 -257t78.5 -134h1q-6 76 -6 312v272h87v-696h-115q-312 512 -361 601h-2q5 -79 5 -323v-278z" />
    <glyph glyph-name="O" unicode="O" horiz-adv-x="751" 
d="M380 706q145 0 231.5 -98.5t86.5 -255.5q0 -154 -85 -258t-241 -104q-149 0 -234 101t-85 257q0 155 87 256.5t240 101.5zM376 627q-112 0 -169 -78.5t-57 -197.5t59.5 -200.5t166.5 -81.5q77 0 129.5 40.5t74.5 101.5t22 139q0 120 -58 198.5t-168 78.5z" />
    <glyph glyph-name="P" unicode="P" horiz-adv-x="629" 
d="M92 0v696h264q103 0 165.5 -54.5t62.5 -148.5q0 -99 -64.5 -153t-169.5 -54h-165v-286h-93zM185 618v-254h161q71 0 107 33t36 94q0 62 -38 94.5t-102 32.5h-164z" />
    <glyph glyph-name="Q" unicode="Q" horiz-adv-x="758" 
d="M380 706q145 0 231.5 -98.5t86.5 -255.5q0 -91 -31.5 -168.5t-91.5 -126.5l169 -120l-56 -64l-195 137q-55 -20 -121 -20q-149 0 -234 101t-85 257q0 155 87 256.5t240 101.5zM376 627q-112 0 -169 -78.5t-57 -197.5t59.5 -200.5t166.5 -81.5q77 0 129.5 40.5t74.5 101.5
t22 139q0 120 -58 198.5t-168 78.5z" />
    <glyph glyph-name="R" unicode="R" horiz-adv-x="642" 
d="M325 306h-142v-306h-91v696h272q104 0 161.5 -51.5t57.5 -134.5q0 -65 -33 -107.5t-86 -56.5q106 -28 106 -178v-30q0 -114 10 -138h-90q-12 28 -12 150v14q0 78 -31.5 110t-121.5 32zM183 618v-234h151q153 0 153 118q0 56 -36 86t-106 30h-162z" />
    <glyph glyph-name="S" unicode="S" horiz-adv-x="606" 
d="M41 194h94q29 -129 177 -129q77 0 114 32t37 85q0 55 -36 86.5t-137 55.5q-121 30 -171 74.5t-50 119.5q0 82 59.5 135t171.5 53q115 0 175 -54.5t69 -132.5h-94q-24 112 -153 112q-64 0 -98 -27t-34 -77q0 -48 34 -73t127 -48q72 -17 119.5 -40.5t71.5 -52t33 -57
t9 -65.5q0 -88 -65 -144t-188 -56t-188 57t-77 146z" />
    <glyph glyph-name="T" unicode="T" horiz-adv-x="558" 
d="M232 0v617h-224v79h542v-79h-225v-617h-93z" />
    <glyph glyph-name="U" unicode="U" horiz-adv-x="714" 
d="M85 696h94v-419q0 -113 51 -161t128 -48q85 0 131.5 47.5t46.5 161.5v419h93v-414q0 -291 -273 -291q-57 0 -104 14.5t-85.5 46.5t-60 89t-21.5 134v421z" />
    <glyph glyph-name="V" unicode="V" horiz-adv-x="642" 
d="M371 0h-109l-253 696h99l122 -347q71 -202 87 -269h2q16 62 91 266l128 350h95z" />
    <glyph glyph-name="W" unicode="W" horiz-adv-x="936" 
d="M308 0h-99l-187 696h98q20 -83 55.5 -228t58 -238.5t28.5 -128.5h1q10 49 75 284t84 311h90q137 -509 152 -592h1q10 53 40 164.5t68 248t50 179.5h91l-203 -696h-99q-138 524 -148 575h-1q-9 -47 -35 -144t-69 -250.5t-51 -180.5z" />
    <glyph glyph-name="X" unicode="X" horiz-adv-x="578" 
d="M580 0h-108l-185 286h-1l-186 -286h-102l235 352l-226 344h107l175 -271h1l180 271h102l-231 -336z" />
    <glyph glyph-name="Y" unicode="Y" horiz-adv-x="591" 
d="M338 0h-93v255q0 13 -5 19l-245 422h106q174 -313 196 -354q31 62 199 354h99l-253 -424q-4 -8 -4 -18v-254z" />
    <glyph glyph-name="Z" unicode="Z" horiz-adv-x="597" 
d="M30 0v71l424 546h-403v79h509v-77l-416 -540h430l-13 -79h-531z" />
    <glyph glyph-name="bracketleft" unicode="[" horiz-adv-x="342" 
d="M303 -172h-217v906h217v-70h-139v-765h139v-71z" />
    <glyph glyph-name="backslash" unicode="\" horiz-adv-x="447" 
d="M324 -51l-279 757h78l280 -757h-79z" />
    <glyph glyph-name="bracketright" unicode="]" horiz-adv-x="342" 
d="M39 734h217v-906h-217v70h139v765h-139v71z" />
    <glyph glyph-name="asciicircum" unicode="^" horiz-adv-x="480" 
d="M444 313h-74l-132 287l-127 -287h-75l169 356h72z" />
    <glyph glyph-name="underscore" unicode="_" horiz-adv-x="531" 
d="M1 -78h530v-51h-530v51z" />
    <glyph glyph-name="grave" unicode="`" 
d="M26 744h109l128 -153h-83z" />
    <glyph glyph-name="a" unicode="a" horiz-adv-x="529" 
d="M453 353v-242q0 -76 7 -111h-84q-6 18 -8 66q-43 -78 -157 -78q-84 0 -127.5 45.5t-43.5 109.5q0 165 240 165h86v43q0 99 -109 99q-30 0 -50.5 -6.5t-32 -20t-16.5 -25t-9 -29.5h-85q6 63 51.5 106.5t144.5 43.5q193 0 193 -166zM367 231v16h-82q-78 0 -116.5 -23.5
t-38.5 -75.5q0 -41 26.5 -66t72.5 -25q44 0 73 13.5t42.5 40t18 54t4.5 66.5z" />
    <glyph glyph-name="b" unicode="b" horiz-adv-x="571" 
d="M75 170v564h88v-299q43 84 161 84q95 0 151.5 -70.5t56.5 -184.5q0 -120 -58.5 -198t-162.5 -78q-109 0 -149 79q0 -39 -4 -67h-84q1 57 1 170zM442 262q0 84 -36.5 133.5t-101.5 49.5q-78 0 -112 -49t-34 -144q0 -190 141 -190q67 0 105 53.5t38 146.5z" />
    <glyph glyph-name="c" unicode="c" horiz-adv-x="506" 
d="M388 155h87q-18 -73 -68.5 -120t-140.5 -47q-105 0 -165.5 70.5t-60.5 192.5q0 113 61.5 190.5t170.5 77.5q52 0 92 -17t62.5 -43.5t34.5 -54t14 -54.5h-87q-23 96 -118 96q-66 0 -103 -52t-37 -140t36 -140.5t101 -52.5q88 0 121 94z" />
    <glyph glyph-name="d" unicode="d" horiz-adv-x="571" 
d="M409 734h88v-591q0 -94 1 -143h-84q-5 22 -5 72q-40 -84 -159 -84q-97 0 -154 71.5t-57 188.5q0 119 62 195t165 76q61 0 96 -19.5t47 -45.5v280zM130 251q0 -89 38 -139t100 -50q82 0 113.5 52.5t31.5 146.5q0 93 -29 138.5t-109 45.5q-68 0 -106.5 -51t-38.5 -143z" />
    <glyph glyph-name="e" unicode="e" horiz-adv-x="523" 
d="M485 238h-358q1 -79 38.5 -128t100.5 -49q54 0 80.5 21.5t41.5 57.5h89q-8 -28 -22.5 -52t-39 -48t-64 -38t-88.5 -14q-111 0 -167.5 76t-56.5 184q0 119 59.5 195t170.5 76q59 0 103 -21.5t67.5 -58t35 -76.5t11.5 -83q0 -29 -1 -42zM130 299h267q-1 66 -34 108.5
t-95 42.5q-123 0 -138 -151z" />
    <glyph glyph-name="f" unicode="f" horiz-adv-x="283" 
d="M178 0h-88v436h-81v71h81v61q0 78 35 127t113 49q38 0 56 -6v-75q-20 5 -44 5q-39 0 -55.5 -25t-16.5 -81v-55h102v-71h-102v-436z" />
    <glyph glyph-name="g" unicode="g" horiz-adv-x="567" 
d="M493 361v-315q0 -126 -56 -190.5t-177 -64.5q-104 0 -153 45.5t-57 109.5h89q23 -85 125 -85q81 0 112 47t31 142v41q-43 -89 -158 -89q-94 0 -152 69.5t-58 181.5q0 121 62.5 193.5t156.5 72.5q66 0 102.5 -24t46.5 -55q1 30 5 67h82q0 -12 -0.5 -66t-0.5 -80zM130 257
q0 -80 38.5 -130t100.5 -50q77 0 109 48t32 138q0 91 -30.5 136.5t-107.5 45.5q-68 0 -105 -51.5t-37 -136.5z" />
    <glyph glyph-name="h" unicode="h" horiz-adv-x="566" 
d="M75 734h88v-302q48 87 158 87q71 0 121 -45.5t50 -149.5v-324h-88v309q0 134 -110 134q-131 0 -131 -166v-277h-88v734z" />
    <glyph glyph-name="i" unicode="i" horiz-adv-x="237" 
d="M75 0v507h88v-507h-88zM163 625h-88v109h88v-109z" />
    <glyph glyph-name="j" unicode="j" horiz-adv-x="237" 
d="M75 507h88v-524q0 -107 -31 -149.5t-112 -42.5q-18 0 -34 2v74q6 -1 19 -1q43 0 56.5 22.5t13.5 79.5v539zM163 625h-88v109h88v-109z" />
    <glyph glyph-name="k" unicode="k" horiz-adv-x="505" 
d="M163 734v-469q24 29 112.5 124t109.5 118h105l-191 -197l213 -310h-103l-170 253l-76 -73v-180h-88v734h88z" />
    <glyph glyph-name="l" unicode="l" horiz-adv-x="237" 
d="M163 0h-88v734h88v-734z" />
    <glyph glyph-name="m" unicode="m" horiz-adv-x="846" 
d="M75 0v376q0 90 -1 131h84q4 -30 4 -78q46 90 147 90q53 0 89.5 -24.5t51.5 -66.5q51 91 161 91q69 0 114.5 -45t45.5 -141v-333h-86v323q0 51 -23 85.5t-77 34.5q-60 0 -89.5 -40.5t-29.5 -111.5v-291h-86v320q0 123 -98 123q-59 0 -89.5 -43.5t-30.5 -118.5v-281h-87z
" />
    <glyph glyph-name="n" unicode="n" horiz-adv-x="566" 
d="M75 0v379q0 89 -1 128h85q4 -20 4 -83q44 95 159 95q76 0 123 -48t47 -145v-326h-88v315q0 128 -107 128q-69 0 -101.5 -47t-32.5 -128v-268h-88z" />
    <glyph glyph-name="o" unicode="o" horiz-adv-x="550" 
d="M278 519q106 0 169.5 -72.5t63.5 -191.5q0 -115 -63.5 -191t-175.5 -76q-107 0 -170 74t-63 191q0 116 63.5 191t175.5 75zM274 446q-70 0 -107.5 -52t-37.5 -140q0 -85 40 -139t107 -54q68 0 106.5 52.5t38.5 139.5t-38.5 140t-108.5 53z" />
    <glyph glyph-name="p" unicode="p" horiz-adv-x="570" 
d="M162 -199h-87v582q0 85 -1 124h85q3 -25 3 -80q50 92 166 92q89 0 145.5 -69t56.5 -183q0 -132 -62 -205.5t-158 -73.5q-106 0 -148 75v-262zM440 263q0 82 -35.5 131.5t-99.5 49.5q-77 0 -112 -47.5t-35 -142.5t32 -143.5t108 -48.5q69 0 105.5 53t36.5 148z" />
    <glyph glyph-name="q" unicode="q" horiz-adv-x="570" 
d="M410 -199v272q-42 -85 -161 -85q-90 0 -150 69t-60 191q0 124 64 197.5t159 73.5q64 0 100.5 -23t47.5 -53q-1 21 3 64h83q-1 -53 -1 -140v-566h-85zM130 252q0 -82 35.5 -136t104.5 -54q78 0 110 49.5t32 144.5t-30 141.5t-108 46.5q-69 0 -106.5 -52.5t-37.5 -139.5z
" />
    <glyph glyph-name="r" unicode="r" horiz-adv-x="352" 
d="M75 0v369q0 41 -0.5 85.5t-0.5 52.5h86q3 -42 3 -103q20 52 64 83t106 32v-87q-170 -5 -170 -186v-246h-88z" />
    <glyph glyph-name="s" unicode="s" horiz-adv-x="473" 
d="M30 145h88q22 -88 124 -88q103 0 103 78q0 37 -24.5 56.5t-95.5 36.5q-103 25 -139 59t-36 90q0 59 46 100.5t137 41.5t138.5 -43t52.5 -103h-84q-20 78 -110 78q-49 0 -71 -19.5t-22 -47.5q0 -29 23 -46t91 -33q109 -26 147 -64t38 -99q0 -68 -52.5 -111t-144.5 -43
q-94 0 -146.5 42.5t-62.5 114.5z" />
    <glyph glyph-name="t" unicode="t" horiz-adv-x="319" 
d="M10 436v71h88v150h87v-150h112v-71h-112v-297q0 -39 12.5 -57t45.5 -18q25 0 44 4v-66q-24 -9 -76 -9q-59 0 -86 30.5t-27 94.5v318h-88z" />
    <glyph glyph-name="u" unicode="u" horiz-adv-x="557" 
d="M482 507v-359q0 -28 0.5 -82t0.5 -66h-85q-2 13 -4 76q-39 -88 -153 -88q-73 0 -120.5 43.5t-47.5 142.5v333h87v-315q0 -128 105 -128q69 0 99 41.5t30 137.5v264h88z" />
    <glyph glyph-name="v" unicode="v" horiz-adv-x="484" 
d="M12 507h94q115 -350 134 -425h1q11 50 142 425h89l-186 -507h-97z" />
    <glyph glyph-name="w" unicode="w" horiz-adv-x="767" 
d="M25 507h92q99 -374 108 -426h1q10 50 117 426h86q105 -381 111 -416h1q20 82 112 416h89l-156 -507h-95q-18 68 -45.5 169.5t-43 159.5t-20.5 82h-1q-8 -46 -111 -411h-98z" />
    <glyph glyph-name="x" unicode="x" horiz-adv-x="453" 
d="M7 507h99q31 -48 57.5 -90.5t41 -65t21.5 -33.5h1q10 14 27 40t45 69.5t52 79.5h98l-171 -244l173 -263h-101q-117 187 -125 200h-1q-65 -106 -124 -200h-98l170 253z" />
    <glyph glyph-name="y" unicode="y" horiz-adv-x="481" 
d="M10 507h95q126 -374 141 -429h1q26 93 135 429h88l-182 -530q-38 -112 -77 -149t-116 -37q-25 0 -55 3v76q26 -2 42 -2q47 0 71 23.5t47 88.5z" />
    <glyph glyph-name="z" unicode="z" horiz-adv-x="451" 
d="M25 0v71l292 362h-277v74h377v-73l-288 -360h302l-14 -74h-392z" />
    <glyph glyph-name="braceleft" unicode="{" horiz-adv-x="370" 
d="M27 245v73q67 0 88.5 27.5t21.5 84.5v130q0 85 47 129.5t126 44.5h21v-67h-16q-96 0 -96 -111v-124q0 -130 -97 -149q51 -12 74 -48.5t23 -102.5v-124q0 -55 26.5 -84.5t71.5 -29.5h14v-67h-21q-74 0 -123.5 42.5t-49.5 131.5v132q0 56 -21 84t-89 28z" />
    <glyph glyph-name="bar" unicode="|" horiz-adv-x="284" 
d="M102 781h80v-1043h-80v1043z" />
    <glyph glyph-name="braceright" unicode="}" horiz-adv-x="370" 
d="M331 316v-73q-67 0 -88.5 -27.5t-21.5 -84.5v-130q0 -85 -47 -129.5t-126 -44.5h-21v67h16q96 0 96 111v124q0 130 97 149q-51 12 -74 48.5t-23 102.5v124q0 55 -26.5 84.5t-71.5 29.5h-14v67h21q74 0 123.5 -42.5t49.5 -131.5v-132q0 -56 21 -84t89 -28z" />
    <glyph glyph-name="asciitilde" unicode="~" horiz-adv-x="670" 
d="M155 203h-68v30q-1 68 31 99.5t83 31.5q55 0 145 -45.5t119 -45.5q27 0 38.5 17t11.5 53v17h68v-21q0 -140 -114 -140q-51 0 -141.5 45.5t-121.5 45.5q-51 0 -51 -68v-19z" />
    <glyph glyph-name="uni00A0" unicode="&#xa0;" horiz-adv-x="253" 
 />
    <glyph glyph-name="exclamdown" unicode="&#xa1;" horiz-adv-x="247" 
d="M71 272h72l12 -339v-122h-95v122zM65 507h87v-138h-87v138z" />
    <glyph glyph-name="cent" unicode="&#xa2;" horiz-adv-x="532" 
d="M407 232h87q-14 -63 -62 -104t-124 -48v-91h-58v92q-92 10 -146 76.5t-54 168.5q0 98 53 166.5t147 80.5v70h58v-69q47 -3 83.5 -19.5t57 -40.5t32 -47t13.5 -45h-87q-23 70 -99 80v-350q74 10 99 80zM140 329q0 -67 28 -115t82 -60v346q-110 -21 -110 -171z" />
    <glyph glyph-name="sterling" unicode="&#xa3;" horiz-adv-x="514" 
d="M485 0h-450v71q78 41 78 201v30h-91v69h88q-2 46 -2 80q0 100 46.5 159t139.5 59q46 0 81.5 -15t55.5 -40t30.5 -52t12.5 -57h-85q-15 89 -97 89q-54 0 -75 -34t-21 -102q0 -33 2 -87h151v-69h-149v-25q0 -136 -53 -199h350z" />
    <glyph glyph-name="currency" unicode="&#xa4;" horiz-adv-x="538" 
d="M271 556q69 0 120 -39l68 71l50 -52l-69 -73q29 -52 29 -116q0 -68 -30 -119l70 -72l-50 -54l-68 70q-51 -39 -122 -39q-69 0 -119 39l-66 -70l-51 54l69 70q-31 51 -31 120q0 66 32 118l-70 72l51 52l68 -71q50 38 119 39zM270 486q-59 0 -91.5 -38.5t-32.5 -100.5
q0 -71 36.5 -108.5t87.5 -37.5q56 0 89.5 36t33.5 109q0 63 -31.5 101.5t-91.5 38.5z" />
    <glyph glyph-name="yen" unicode="&#xa5;" horiz-adv-x="481" 
d="M414 167h-132v-167h-89v167h-130v61h130v63h-130v61h116l-181 306h101q128 -228 143 -264h1q9 20 145 264h93l-185 -306h118v-61h-132v-63h132v-61z" />
    <glyph glyph-name="brokenbar" unicode="&#xa6;" horiz-adv-x="234" 
d="M82 179h75v-358h-75v358zM82 689h75v-356h-75v356z" />
    <glyph glyph-name="section" unicode="&#xa7;" horiz-adv-x="560" 
d="M477 535h-84q-22 84 -117 84q-54 0 -79.5 -23t-25.5 -62q0 -22 8.5 -38.5t32 -31t43 -23t63.5 -25.5q98 -41 142.5 -86.5t44.5 -115.5q0 -88 -75 -146q40 -38 40 -105q0 -77 -55 -122t-149 -45q-97 0 -153.5 43t-67.5 121h87q11 -43 44.5 -69t91.5 -26q116 0 116 91
q0 43 -30.5 69.5t-125.5 60.5q-105 38 -146 81.5t-41 111.5q0 45 24 84t63 62q-41 38 -41 101q0 70 50.5 115.5t142.5 45.5q53 0 93 -15t60.5 -40t31 -49t12.5 -48zM122 292q0 -40 24.5 -67.5t100.5 -56.5q95 -34 131 -58q43 33 43 91q0 44 -26 73.5t-99 62.5
q-74 30 -113 51q-61 -40 -61 -96z" />
    <glyph glyph-name="dieresis" unicode="&#xa8;" 
d="M147 625h-77v109h77v-109zM329 625h-76v109h76v-109z" />
    <glyph glyph-name="copyright" unicode="&#xa9;" horiz-adv-x="791" 
d="M498 278h63q-15 -61 -57 -96t-108 -35q-80 0 -130.5 56.5t-50.5 145.5t50 146.5t133 57.5q73 1 115 -39t49 -94h-63q-23 77 -102 77q-52 0 -83.5 -38.5t-31.5 -107.5q0 -68 32 -107.5t83 -39.5q75 0 101 74zM392 705q149 0 245.5 -100.5t96.5 -255.5q0 -156 -97.5 -257.5
t-244.5 -101.5q-150 0 -247 100t-97 259q0 153 98.5 254.5t245.5 101.5zM391 653q-124 0 -205 -82.5t-81 -224.5q0 -131 81.5 -217.5t204.5 -86.5q125 0 205.5 84t80.5 223q0 133 -80.5 218.5t-205.5 85.5z" />
    <glyph glyph-name="ordfeminine" unicode="&#xaa;" horiz-adv-x="352" 
d="M305 489v-155q0 -57 1 -74h-65q-1 7 -2 25t-1 21q-28 -50 -102 -50q-55 0 -84.5 29.5t-29.5 73.5q0 54 39.5 81t110.5 27h64v26q0 59 -65 59q-58 0 -66 -52h-67q12 102 136 102q131 0 131 -113zM238 410v9h-61q-85 0 -85 -53q0 -54 64 -54q41 0 61.5 26.5t20.5 71.5z" />
    <glyph glyph-name="guillemotleft" unicode="&#xab;" horiz-adv-x="546" 
d="M294 453l-151 -193l151 -196h-83l-154 196l154 193h83zM489 453l-153 -193l153 -196h-85l-153 196l153 193h85z" />
    <glyph glyph-name="logicalnot" unicode="&#xac;" horiz-adv-x="713" 
d="M75 405h548v-321h-79v243h-469v78z" />
    <glyph glyph-name="uni00AD" unicode="&#xad;" horiz-adv-x="378" 
d="M58 296h262v-80h-262v80z" />
    <glyph glyph-name="registered" unicode="&#xae;" horiz-adv-x="351" 
d="M159 456h-40v167h71q66 0 66 -48q0 -14 -8.5 -24.5t-19.5 -14.5q23 -9 23 -44q0 -24 2 -36h-39q-4 12 -4 35q0 16 -5.5 23t-21.5 7h-24v-65zM159 595v-45h28q27 0 27 23q0 22 -27 22h-28zM185 706q72 0 117.5 -49.5t45.5 -119.5q0 -73 -45.5 -121.5t-117.5 -48.5
q-70 0 -117 48.5t-47 121.5q0 71 46.5 120t117.5 49zM185 672q-60 0 -93.5 -39.5t-33.5 -95.5q0 -57 36.5 -96t90.5 -39q60 0 92.5 37t32.5 97q0 58 -35 97t-90 39z" />
    <glyph glyph-name="macron" unicode="&#xaf;" 
d="M61 699h277v-71h-277v71z" />
    <glyph glyph-name="degree" unicode="&#xb0;" horiz-adv-x="324" 
d="M167 685q61 0 98 -39t37 -94q0 -62 -40 -100t-97 -38q-59 0 -96 37.5t-37 95.5q0 60 38.5 99t96.5 39zM166 637q-37 0 -57.5 -25t-20.5 -63q0 -37 21.5 -61.5t56.5 -24.5q36 0 58 24t22 63q0 34 -21 60.5t-59 26.5z" />
    <glyph glyph-name="plusminus" unicode="&#xb1;" horiz-adv-x="713" 
d="M320 668h73v-225h237v-71h-237v-229h-73v229h-237v71h237v225zM631 0h-548v72h548v-72z" />
    <glyph glyph-name="two.sups" unicode="&#xb2;" horiz-adv-x="362" 
d="M328 429h-291v5q0 106 131 186q51 31 65.5 47t14.5 41q0 29 -17 46.5t-50 17.5q-65 0 -77 -72h-69q6 60 46 95.5t103 35.5q71 0 105 -37.5t34 -82.5t-23.5 -71t-81.5 -60q-83 -49 -97 -92h218z" />
    <glyph glyph-name="three.sups" unicode="&#xb3;" horiz-adv-x="372" 
d="M147 609v60h33q67 0 67 49q0 56 -68 56q-60 0 -76 -57h-65q2 16 9 33t22 36.5t44.5 31.5t68.5 12q66 0 101 -30.5t35 -77.5q0 -58 -57 -80q31 -9 52.5 -33.5t21.5 -61.5q0 -51 -37.5 -87t-115.5 -36q-42 0 -73 12.5t-47 33t-23.5 38t-9.5 35.5h69q6 -27 28.5 -45
t57.5 -18q37 0 57 18t20 47q0 64 -77 64h-37z" />
    <glyph glyph-name="acute" unicode="&#xb4;" 
d="M267 744h108l-154 -153h-82z" />
    <glyph glyph-name="uni00B5" unicode="&#xb5;" horiz-adv-x="553" 
d="M248 -10q-60 0 -93 44q5 -78 5 -239h-87v379v333h87v-315q0 -126 102 -126q60 0 94.5 40.5t34.5 124.5v276h88v-361q0 -98 2 -146h-85q-3 19 -5 80q-41 -90 -143 -90z" />
    <glyph glyph-name="paragraph" unicode="&#xb6;" horiz-adv-x="601" 
d="M476 -157h-70v296h-127q-115 0 -175.5 67t-60.5 185q0 117 60.5 183t175.5 66h128q0 34 4 56h66q-1 -19 -1 -83v-770zM359 211h47v360h-46q-24 0 -41 -9.5t-26.5 -23.5t-14.5 -39.5t-6.5 -47t-1.5 -55.5v-38t1.5 -35.5t4.5 -36t9.5 -29t16 -25.5t24 -14.5t33.5 -6.5z" />
    <glyph glyph-name="periodcentered" unicode="&#xb7;" horiz-adv-x="203" 
d="M147 200h-92v148h92v-148z" />
    <glyph glyph-name="cedilla" unicode="&#xb8;" 
d="M185 10l62 -10l-41 -51q97 -16 97 -94q0 -53 -37 -75t-87 -22q-46 0 -72 12v60q25 -11 65 -11q53 0 53 35q0 43 -103 45v28z" />
    <glyph glyph-name="one.sups" unicode="&#xb9;" horiz-adv-x="249" 
d="M179 428h-72v314q-15 -8 -42.5 -14.5t-41.5 -6.5v55q60 10 107 55h49v-403z" />
    <glyph glyph-name="ordmasculine" unicode="&#xba;" horiz-adv-x="377" 
d="M191 602q73 0 116 -47t43 -126q0 -83 -45.5 -128t-118.5 -45q-71 0 -115 47t-44 125q0 80 46 127t118 47zM188 548q-43 0 -67 -31.5t-24 -87.5q0 -54 24.5 -86.5t66.5 -32.5q92 0 92 119q-1 56 -24 87.5t-68 31.5z" />
    <glyph glyph-name="guillemotright" unicode="&#xbb;" horiz-adv-x="546" 
d="M253 64l150 194l-151 195h84l153 -195l-153 -194h-83zM57 64l153 194l-153 195h85l153 -195l-153 -194h-85z" />
    <glyph glyph-name="onequarter" unicode="&#xbc;" horiz-adv-x="777" 
d="M179 1h-71l431 658h70zM189 261h-72v314q-15 -8 -42.5 -14.5t-41.5 -6.5v55q60 10 107 55h49v-403zM688 0h-67v103h-198v55l181 237h84v-236h61l-6 -56h-55v-103zM494 159h127v81q0 62 3 96q-1 -2 -130 -177z" />
    <glyph glyph-name="onehalf" unicode="&#xbd;" horiz-adv-x="813" 
d="M177 0h-71l431 658h70zM192 261h-72v314q-15 -8 -42.5 -14.5t-41.5 -6.5v55q60 10 107 55h49v-403zM770 0h-291v5q0 106 131 186q51 31 65.5 47t14.5 41q0 29 -17 46.5t-50 17.5q-65 0 -77 -72h-69q6 60 46 95.5t103 35.5q71 0 105 -37.5t34 -82.5t-23.5 -71t-81.5 -60
q-83 -49 -97 -92h218z" />
    <glyph glyph-name="threequarters" unicode="&#xbe;" horiz-adv-x="860" 
d="M288 1h-71l431 658h70zM777 0h-67v103h-198v55l181 237h84v-236h61l-6 -56h-55v-103zM583 159h127v81q0 62 3 96q-1 -2 -130 -177zM162 442v60h33q67 0 67 49q0 56 -68 56q-60 0 -76 -57h-65q2 16 9 33t22 36.5t44.5 31.5t68.5 12q66 0 101 -30.5t35 -77.5q0 -58 -57 -80
q31 -9 52.5 -33.5t21.5 -61.5q0 -51 -37.5 -87t-115.5 -36q-42 0 -73 12.5t-47 33t-23.5 38t-9.5 35.5h69q6 -27 28.5 -45t57.5 -18q37 0 57 18t20 47q0 64 -77 64h-37z" />
    <glyph glyph-name="questiondown" unicode="&#xbf;" horiz-adv-x="446" 
d="M22 -23q0 54 20.5 95.5t74.5 89.5q37 34 52 62t15 64v8h90v-16q0 -43 -20 -82t-75 -88q-41 -38 -55.5 -68t-14.5 -64q0 -42 29 -73.5t82 -31.5q109 0 125 118h79q-1 -32 -11.5 -62.5t-32.5 -60.5t-65 -48.5t-101 -18.5q-94 0 -143 52t-49 124zM184 507h90v-138h-90v138z
" />
    <glyph glyph-name="Agrave" unicode="&#xc0;" horiz-adv-x="660" 
d="M464 209h-277l-75 -209h-92l248 696h113l259 -696h-99zM211 288h230q-105 286 -118 333h-1q-12 -41 -111 -333zM119 895h116l137 -137h-89z" />
    <glyph glyph-name="Aacute" unicode="&#xc1;" horiz-adv-x="660" 
d="M464 209h-277l-75 -209h-92l248 696h113l259 -696h-99zM211 288h230q-105 286 -118 333h-1q-12 -41 -111 -333zM424 895h115l-171 -137h-91z" />
    <glyph glyph-name="Acircumflex" unicode="&#xc2;" horiz-adv-x="660" 
d="M464 209h-277l-75 -209h-92l248 696h113l259 -696h-99zM211 288h230q-105 286 -118 333h-1q-12 -41 -111 -333zM281 889h92l130 -131h-93l-84 83l-89 -83h-92z" />
    <glyph glyph-name="Atilde" unicode="&#xc3;" horiz-adv-x="660" 
d="M464 209h-277l-75 -209h-92l248 696h113l259 -696h-99zM211 288h230q-105 286 -118 333h-1q-12 -41 -111 -333zM217 766h-64v22q0 98 86 98q34 0 90 -26.5t71 -26.5q32 0 32 43v12h61v-21q0 -56 -21.5 -79.5t-63.5 -23.5q-31 0 -87 26.5t-75 26.5q-29 0 -29 -34v-17z" />
    <glyph glyph-name="Adieresis" unicode="&#xc4;" horiz-adv-x="660" 
d="M464 209h-277l-75 -209h-92l248 696h113l259 -696h-99zM211 288h230q-105 286 -118 333h-1q-12 -41 -111 -333zM264 770h-77v110h77v-110zM459 770h-76v110h76v-110z" />
    <glyph glyph-name="Aring" unicode="&#xc5;" horiz-adv-x="660" 
d="M464 209h-277l-75 -209h-92l248 696h113l259 -696h-99zM211 288h230q-105 286 -118 333h-1q-12 -41 -111 -333zM324 733q-48 0 -77.5 27.5t-29.5 69.5q0 41 29 70t78 29q48 0 77 -28t29 -70t-29.5 -70t-76.5 -28zM324 778q25 0 38.5 15.5t13.5 36.5q0 22 -13.5 38
t-38.5 16t-38.5 -15.5t-13.5 -36.5q0 -22 13 -38t39 -16z" />
    <glyph glyph-name="AE" unicode="&#xc6;" horiz-adv-x="968" 
d="M413 696h503v-80h-362v-211h345v-80h-345v-245h379l-12 -80h-458v237h-236l-148 -237h-100zM271 317h192v306h-3z" />
    <glyph glyph-name="Ccedilla" unicode="&#xc7;" horiz-adv-x="686" 
d="M550 197h93q-22 -85 -81.5 -139.5t-155.5 -64.5l-35 -44q97 -16 97 -94q0 -53 -37 -75t-87 -22q-46 0 -72 12v60q25 -11 65 -11q53 0 53 35q0 43 -103 45v28l49 65q-136 10 -209.5 108.5t-73.5 245.5q0 97 34 177t107.5 131.5t174.5 51.5q117 0 187 -58.5t87 -151.5h-92
q-44 133 -185 133q-56 0 -98.5 -23.5t-67.5 -64t-37.5 -89t-12.5 -103.5q0 -54 12 -102t37 -89.5t69 -65.5t102 -24q130 0 180 129z" />
    <glyph glyph-name="Egrave" unicode="&#xc8;" horiz-adv-x="597" 
d="M528 404v-79h-346v-246h380l-12 -79h-458v696h453v-79h-363v-213h346zM126 905h116l137 -137h-89z" />
    <glyph glyph-name="Eacute" unicode="&#xc9;" horiz-adv-x="597" 
d="M528 404v-79h-346v-246h380l-12 -79h-458v696h453v-79h-363v-213h346zM408 903h115l-171 -137h-91z" />
    <glyph glyph-name="Ecircumflex" unicode="&#xca;" horiz-adv-x="597" 
d="M528 404v-79h-346v-246h380l-12 -79h-458v696h453v-79h-363v-213h346zM275 895h92l130 -131h-93l-84 83l-89 -83h-92z" />
    <glyph glyph-name="Edieresis" unicode="&#xcb;" horiz-adv-x="597" 
d="M528 404v-79h-346v-246h380l-12 -79h-458v696h453v-79h-363v-213h346zM260 775h-77v110h77v-110zM455 775h-76v110h76v-110z" />
    <glyph glyph-name="Igrave" unicode="&#xcc;" horiz-adv-x="276" 
d="M92 696h92v-696h-92v696zM-66 898h116l137 -137h-89z" />
    <glyph glyph-name="Iacute" unicode="&#xcd;" horiz-adv-x="276" 
d="M92 696h92v-696h-92v696zM238 895h115l-171 -137h-91z" />
    <glyph glyph-name="Icircumflex" unicode="&#xce;" horiz-adv-x="276" 
d="M92 696h92v-696h-92v696zM95 889h92l130 -131h-93l-84 83l-89 -83h-92z" />
    <glyph glyph-name="Idieresis" unicode="&#xcf;" horiz-adv-x="276" 
d="M92 696h92v-696h-92v696zM79 770h-77v110h77v-110zM274 770h-76v110h76v-110z" />
    <glyph glyph-name="Eth" unicode="&#xd0;" horiz-adv-x="730" 
d="M18 393h84v303h248q148 0 238 -93t90 -248q0 -156 -90.5 -255.5t-240.5 -99.5h-245v323h-84v70zM194 617v-224h180v-70h-180v-245h146q118 0 179.5 76t61.5 199q0 112 -60.5 188t-180.5 76h-146z" />
    <glyph glyph-name="Ntilde" unicode="&#xd1;" horiz-adv-x="744" 
d="M179 0h-87v696h122q22 -36 119 -193t158.5 -257t78.5 -134h1q-6 76 -6 312v272h87v-696h-115q-312 512 -361 601h-2q5 -79 5 -323v-278zM266 766h-64v22q0 98 86 98q34 0 90 -26.5t71 -26.5q32 0 32 43v12h61v-21q0 -56 -21.5 -79.5t-63.5 -23.5q-31 0 -87 26.5t-75 26.5
q-29 0 -29 -34v-17z" />
    <glyph glyph-name="Ograve" unicode="&#xd2;" horiz-adv-x="751" 
d="M380 706q145 0 231.5 -98.5t86.5 -255.5q0 -154 -85 -258t-241 -104q-149 0 -234 101t-85 257q0 155 87 256.5t240 101.5zM376 627q-112 0 -169 -78.5t-57 -197.5t59.5 -200.5t166.5 -81.5q77 0 129.5 40.5t74.5 101.5t22 139q0 120 -58 198.5t-168 78.5zM183 908h116
l137 -137h-89z" />
    <glyph glyph-name="Oacute" unicode="&#xd3;" horiz-adv-x="751" 
d="M380 706q145 0 231.5 -98.5t86.5 -255.5q0 -154 -85 -258t-241 -104q-149 0 -234 101t-85 257q0 155 87 256.5t240 101.5zM376 627q-112 0 -169 -78.5t-57 -197.5t59.5 -200.5t166.5 -81.5q77 0 129.5 40.5t74.5 101.5t22 139q0 120 -58 198.5t-168 78.5zM468 902h115
l-171 -137h-91z" />
    <glyph glyph-name="Ocircumflex" unicode="&#xd4;" horiz-adv-x="751" 
d="M380 706q145 0 231.5 -98.5t86.5 -255.5q0 -154 -85 -258t-241 -104q-149 0 -234 101t-85 257q0 155 87 256.5t240 101.5zM376 627q-112 0 -169 -78.5t-57 -197.5t59.5 -200.5t166.5 -81.5q77 0 129.5 40.5t74.5 101.5t22 139q0 120 -58 198.5t-168 78.5zM333 893h92
l130 -131h-93l-84 83l-89 -83h-92z" />
    <glyph glyph-name="Otilde" unicode="&#xd5;" horiz-adv-x="751" 
d="M380 706q145 0 231.5 -98.5t86.5 -255.5q0 -154 -85 -258t-241 -104q-149 0 -234 101t-85 257q0 155 87 256.5t240 101.5zM376 627q-112 0 -169 -78.5t-57 -197.5t59.5 -200.5t166.5 -81.5q77 0 129.5 40.5t74.5 101.5t22 139q0 120 -58 198.5t-168 78.5zM270 771h-64v22
q0 98 86 98q34 0 90 -26.5t71 -26.5q32 0 32 43v12h61v-21q0 -56 -21.5 -79.5t-63.5 -23.5q-31 0 -87 26.5t-75 26.5q-29 0 -29 -34v-17z" />
    <glyph glyph-name="Odieresis" unicode="&#xd6;" horiz-adv-x="751" 
d="M380 706q145 0 231.5 -98.5t86.5 -255.5q0 -154 -85 -258t-241 -104q-149 0 -234 101t-85 257q0 155 87 256.5t240 101.5zM376 627q-112 0 -169 -78.5t-57 -197.5t59.5 -200.5t166.5 -81.5q77 0 129.5 40.5t74.5 101.5t22 139q0 120 -58 198.5t-168 78.5zM317 775h-77
v110h77v-110zM512 775h-76v110h76v-110z" />
    <glyph glyph-name="multiply" unicode="&#xd7;" horiz-adv-x="713" 
d="M627 54l-52 -54l-218 228l-218 -228l-52 54l219 227l-219 229l51 52l219 -228l219 228l51 -52l-219 -229z" />
    <glyph glyph-name="Oslash" unicode="&#xd8;" horiz-adv-x="751" 
d="M380 706q96 0 171 -47l26 37h70l-52 -72q105 -100 105 -272q0 -157 -85 -259.5t-243 -102.5q-108 0 -186 58l-34 -48h-70l62 87q-91 99 -91 261q0 153 88.5 255.5t238.5 102.5zM146 351q0 -112 52 -188l305 429q-55 37 -127 37q-109 0 -169.5 -77t-60.5 -201zM376 67
q115 0 172 79t57 204q0 127 -60 202l-309 -434q57 -51 140 -51z" />
    <glyph glyph-name="Ugrave" unicode="&#xd9;" horiz-adv-x="714" 
d="M85 696h94v-419q0 -113 51 -161t128 -48q85 0 131.5 47.5t46.5 161.5v419h93v-414q0 -291 -273 -291q-57 0 -104 14.5t-85.5 46.5t-60 89t-21.5 134v421zM166 895h116l137 -137h-89z" />
    <glyph glyph-name="Uacute" unicode="&#xda;" horiz-adv-x="714" 
d="M85 696h94v-419q0 -113 51 -161t128 -48q85 0 131.5 47.5t46.5 161.5v419h93v-414q0 -291 -273 -291q-57 0 -104 14.5t-85.5 46.5t-60 89t-21.5 134v421zM447 895h115l-171 -137h-91z" />
    <glyph glyph-name="Ucircumflex" unicode="&#xdb;" horiz-adv-x="714" 
d="M85 696h94v-419q0 -113 51 -161t128 -48q85 0 131.5 47.5t46.5 161.5v419h93v-414q0 -291 -273 -291q-57 0 -104 14.5t-85.5 46.5t-60 89t-21.5 134v421zM314 897h92l130 -131h-93l-84 83l-89 -83h-92z" />
    <glyph glyph-name="Udieresis" unicode="&#xdc;" horiz-adv-x="714" 
d="M85 696h94v-419q0 -113 51 -161t128 -48q85 0 131.5 47.5t46.5 161.5v419h93v-414q0 -291 -273 -291q-57 0 -104 14.5t-85.5 46.5t-60 89t-21.5 134v421zM298 770h-77v110h77v-110zM493 770h-76v110h76v-110z" />
    <glyph glyph-name="Yacute" unicode="&#xdd;" horiz-adv-x="591" 
d="M338 0h-93v255q0 13 -5 19l-245 422h106q174 -313 196 -354q31 62 199 354h99l-253 -424q-4 -8 -4 -18v-254zM387 893h115l-171 -137h-91z" />
    <glyph glyph-name="Thorn" unicode="&#xde;" horiz-adv-x="628" 
d="M92 0v696h92v-137h159q116 0 176 -55.5t60 -144.5q0 -98 -65 -153t-179 -55h-151v-151h-92zM184 482v-253h148q153 0 153 129q0 61 -39.5 92.5t-110.5 31.5h-151z" />
    <glyph glyph-name="germandbls" unicode="&#xdf;" horiz-adv-x="586" 
d="M300 745q110 0 165.5 -55.5t58.5 -131.5q0 -21 -2 -32l-170 -116v-1l80 -56q69 -49 95 -90.5t26 -95.5q0 -79 -51 -127.5t-140 -48.5q-98 0 -152 47v88q63 -64 150 -64q54 0 80.5 29t26.5 67q0 35 -18.5 63t-68.5 63l-90 63q-36 25 -36 53.5t37 54.5l143 98q0 19 -6 38
t-19.5 38t-42 31t-67.5 12q-66 0 -101.5 -33t-35.5 -113v-526h-88v532q0 110 61 161.5t165 51.5z" />
    <glyph glyph-name="agrave" unicode="&#xe0;" horiz-adv-x="529" 
d="M453 353v-242q0 -76 7 -111h-84q-6 18 -8 66q-43 -78 -157 -78q-84 0 -127.5 45.5t-43.5 109.5q0 165 240 165h86v43q0 99 -109 99q-30 0 -50.5 -6.5t-32 -20t-16.5 -25t-9 -29.5h-85q6 63 51.5 106.5t144.5 43.5q193 0 193 -166zM367 231v16h-82q-78 0 -116.5 -23.5
t-38.5 -75.5q0 -41 26.5 -66t72.5 -25q44 0 73 13.5t42.5 40t18 54t4.5 66.5zM83 744h109l128 -153h-83z" />
    <glyph glyph-name="aacute" unicode="&#xe1;" horiz-adv-x="529" 
d="M453 353v-242q0 -76 7 -111h-84q-6 18 -8 66q-43 -78 -157 -78q-84 0 -127.5 45.5t-43.5 109.5q0 165 240 165h86v43q0 99 -109 99q-30 0 -50.5 -6.5t-32 -20t-16.5 -25t-9 -29.5h-85q6 63 51.5 106.5t144.5 43.5q193 0 193 -166zM367 231v16h-82q-78 0 -116.5 -23.5
t-38.5 -75.5q0 -41 26.5 -66t72.5 -25q44 0 73 13.5t42.5 40t18 54t4.5 66.5zM332 744h108l-154 -153h-82z" />
    <glyph glyph-name="acircumflex" unicode="&#xe2;" horiz-adv-x="529" 
d="M453 353v-242q0 -76 7 -111h-84q-6 18 -8 66q-43 -78 -157 -78q-84 0 -127.5 45.5t-43.5 109.5q0 165 240 165h86v43q0 99 -109 99q-30 0 -50.5 -6.5t-32 -20t-16.5 -25t-9 -29.5h-85q6 63 51.5 106.5t144.5 43.5q193 0 193 -166zM367 231v16h-82q-78 0 -116.5 -23.5
t-38.5 -75.5q0 -41 26.5 -66t72.5 -25q44 0 73 13.5t42.5 40t18 54t4.5 66.5zM223 734h83l111 -152h-86l-67 101l-66 -101h-85z" />
    <glyph glyph-name="atilde" unicode="&#xe3;" horiz-adv-x="529" 
d="M453 353v-242q0 -76 7 -111h-84q-6 18 -8 66q-43 -78 -157 -78q-84 0 -127.5 45.5t-43.5 109.5q0 165 240 165h86v43q0 99 -109 99q-30 0 -50.5 -6.5t-32 -20t-16.5 -25t-9 -29.5h-85q6 63 51.5 106.5t144.5 43.5q193 0 193 -166zM367 231v16h-82q-78 0 -116.5 -23.5
t-38.5 -75.5q0 -41 26.5 -66t72.5 -25q44 0 73 13.5t42.5 40t18 54t4.5 66.5zM172 605h-62v23q0 96 81 96q30 0 77.5 -24.5t62.5 -24.5q28 0 28 42v10h61v-21q0 -102 -83 -102q-30 0 -75 25t-64 25q-26 0 -26 -33v-16z" />
    <glyph glyph-name="adieresis" unicode="&#xe4;" horiz-adv-x="529" 
d="M453 353v-242q0 -76 7 -111h-84q-6 18 -8 66q-43 -78 -157 -78q-84 0 -127.5 45.5t-43.5 109.5q0 165 240 165h86v43q0 99 -109 99q-30 0 -50.5 -6.5t-32 -20t-16.5 -25t-9 -29.5h-85q6 63 51.5 106.5t144.5 43.5q193 0 193 -166zM367 231v16h-82q-78 0 -116.5 -23.5
t-38.5 -75.5q0 -41 26.5 -66t72.5 -25q44 0 73 13.5t42.5 40t18 54t4.5 66.5zM212 625h-77v109h77v-109zM394 625h-76v109h76v-109z" />
    <glyph glyph-name="aring" unicode="&#xe5;" horiz-adv-x="529" 
d="M453 353v-242q0 -76 7 -111h-84q-6 18 -8 66q-43 -78 -157 -78q-84 0 -127.5 45.5t-43.5 109.5q0 165 240 165h86v43q0 99 -109 99q-30 0 -50.5 -6.5t-32 -20t-16.5 -25t-9 -29.5h-85q6 63 51.5 106.5t144.5 43.5q193 0 193 -166zM367 231v16h-82q-78 0 -116.5 -23.5
t-38.5 -75.5q0 -41 26.5 -66t72.5 -25q44 0 73 13.5t42.5 40t18 54t4.5 66.5zM265 566q-48 0 -77.5 27.5t-29.5 69.5q0 41 29 70t78 29q48 0 77 -28t29 -70t-29.5 -70t-76.5 -28zM265 611q25 0 38.5 15.5t13.5 36.5q0 22 -13.5 38t-38.5 16t-38.5 -15.5t-13.5 -36.5
q0 -22 13 -38t39 -16z" />
    <glyph glyph-name="ae" unicode="&#xe6;" horiz-adv-x="850" 
d="M719 142h87q-43 -152 -215 -152q-71 0 -118 28.5t-70 71.5q-53 -100 -186 -100q-85 0 -131 44.5t-46 109.5q0 51 23.5 84.5t66.5 49t85 21t97 5.5h58v43q0 104 -103 104q-52 0 -76.5 -21t-31.5 -63h-93q6 70 56.5 110t138.5 40q135 0 168 -81q55 81 172 81
q105 0 158 -67.5t53 -161.5q0 -33 -1 -47h-358q-1 -83 37.5 -132t104.5 -49q52 0 80 20.5t44 61.5zM371 231v10h-64q-89 0 -133.5 -19.5t-44.5 -73.5q0 -36 29 -61.5t74 -25.5q75 0 107 42.5t32 127.5zM455 304h271q-2 64 -34.5 103.5t-95.5 40.5q-61 1 -97.5 -36.5
t-43.5 -107.5z" />
    <glyph glyph-name="ccedilla" unicode="&#xe7;" horiz-adv-x="506" 
d="M388 155h87q-15 -63 -55.5 -107.5t-109.5 -56.5l-34 -42q97 -16 97 -94q0 -53 -37 -75t-87 -22q-46 0 -72 12v60q25 -11 65 -11q53 0 53 35q0 43 -103 45v28l47 62q-93 9 -146 78.5t-53 183.5q0 113 61.5 190.5t170.5 77.5q52 0 92 -17t62.5 -43.5t34.5 -54t14 -54.5h-87
q-23 96 -118 96q-66 0 -103 -52t-37 -140t36 -140.5t101 -52.5q88 0 121 94z" />
    <glyph glyph-name="egrave" unicode="&#xe8;" horiz-adv-x="523" 
d="M485 238h-358q1 -79 38.5 -128t100.5 -49q54 0 80.5 21.5t41.5 57.5h89q-8 -28 -22.5 -52t-39 -48t-64 -38t-88.5 -14q-111 0 -167.5 76t-56.5 184q0 119 59.5 195t170.5 76q59 0 103 -21.5t67.5 -58t35 -76.5t11.5 -83q0 -29 -1 -42zM130 299h267q-1 66 -34 108.5
t-95 42.5q-123 0 -138 -151zM88 744h109l128 -153h-83z" />
    <glyph glyph-name="eacute" unicode="&#xe9;" horiz-adv-x="523" 
d="M485 238h-358q1 -79 38.5 -128t100.5 -49q54 0 80.5 21.5t41.5 57.5h89q-8 -28 -22.5 -52t-39 -48t-64 -38t-88.5 -14q-111 0 -167.5 76t-56.5 184q0 119 59.5 195t170.5 76q59 0 103 -21.5t67.5 -58t35 -76.5t11.5 -83q0 -29 -1 -42zM130 299h267q-1 66 -34 108.5
t-95 42.5q-123 0 -138 -151zM336 744h108l-154 -153h-82z" />
    <glyph glyph-name="ecircumflex" unicode="&#xea;" horiz-adv-x="523" 
d="M485 238h-358q1 -79 38.5 -128t100.5 -49q54 0 80.5 21.5t41.5 57.5h89q-8 -28 -22.5 -52t-39 -48t-64 -38t-88.5 -14q-111 0 -167.5 76t-56.5 184q0 119 59.5 195t170.5 76q59 0 103 -21.5t67.5 -58t35 -76.5t11.5 -83q0 -29 -1 -42zM130 299h267q-1 66 -34 108.5
t-95 42.5q-123 0 -138 -151zM230 734h83l111 -152h-86l-67 101l-66 -101h-85z" />
    <glyph glyph-name="edieresis" unicode="&#xeb;" horiz-adv-x="523" 
d="M485 238h-358q1 -79 38.5 -128t100.5 -49q54 0 80.5 21.5t41.5 57.5h89q-8 -28 -22.5 -52t-39 -48t-64 -38t-88.5 -14q-111 0 -167.5 76t-56.5 184q0 119 59.5 195t170.5 76q59 0 103 -21.5t67.5 -58t35 -76.5t11.5 -83q0 -29 -1 -42zM130 299h267q-1 66 -34 108.5
t-95 42.5q-123 0 -138 -151zM212 625h-77v109h77v-109zM394 625h-76v109h76v-109z" />
    <glyph glyph-name="igrave" unicode="&#xec;" horiz-adv-x="237" 
d="M75 0v507h88v-507h-88zM-75 744h109l128 -153h-83z" />
    <glyph glyph-name="iacute" unicode="&#xed;" horiz-adv-x="237" 
d="M75 0v507h88v-507h-88zM203 744h108l-154 -153h-82z" />
    <glyph glyph-name="icircumflex" unicode="&#xee;" horiz-adv-x="237" 
d="M75 0v507h88v-507h-88zM77 734h83l111 -152h-86l-67 101l-66 -101h-85z" />
    <glyph glyph-name="idieresis" unicode="&#xef;" horiz-adv-x="237" 
d="M75 0v507h88v-507h-88zM66 625h-77v109h77v-109zM248 625h-76v109h76v-109z" />
    <glyph glyph-name="eth" unicode="&#xf0;" horiz-adv-x="540" 
d="M105 676v69q109 -15 190 -64l108 74l28 -47l-88 -60q155 -123 155 -360q0 -150 -64 -225t-171 -75q-105 0 -165.5 73t-60.5 186q0 118 66.5 186.5t168.5 68.5q62 0 107 -34q-34 83 -102 136l-127 -86l-28 46l104 71q-48 26 -121 41zM272 429q-69 0 -107.5 -52t-38.5 -133
q0 -76 38 -129t104 -53q71 0 106.5 57.5t35.5 157.5q0 68 -33 110t-105 42z" />
    <glyph glyph-name="ntilde" unicode="&#xf1;" horiz-adv-x="566" 
d="M75 0v379q0 89 -1 128h85q4 -20 4 -83q44 95 159 95q76 0 123 -48t47 -145v-326h-88v315q0 128 -107 128q-69 0 -101.5 -47t-32.5 -128v-268h-88zM187 608h-62v23q0 96 81 96q30 0 77 -24.5t63 -24.5q28 0 28 42v10h61v-21q0 -102 -83 -102q-30 0 -75 25t-64 25
q-26 0 -26 -33v-16z" />
    <glyph glyph-name="ograve" unicode="&#xf2;" horiz-adv-x="550" 
d="M278 519q106 0 169.5 -72.5t63.5 -191.5q0 -115 -63.5 -191t-175.5 -76q-107 0 -170 74t-63 191q0 116 63.5 191t175.5 75zM274 446q-70 0 -107.5 -52t-37.5 -140q0 -85 40 -139t107 -54q68 0 106.5 52.5t38.5 139.5t-38.5 140t-108.5 53zM94 744h109l128 -153h-83z" />
    <glyph glyph-name="oacute" unicode="&#xf3;" horiz-adv-x="550" 
d="M278 519q106 0 169.5 -72.5t63.5 -191.5q0 -115 -63.5 -191t-175.5 -76q-107 0 -170 74t-63 191q0 116 63.5 191t175.5 75zM274 446q-70 0 -107.5 -52t-37.5 -140q0 -85 40 -139t107 -54q68 0 106.5 52.5t38.5 139.5t-38.5 140t-108.5 53zM342 744h108l-154 -153h-82z
" />
    <glyph glyph-name="ocircumflex" unicode="&#xf4;" horiz-adv-x="550" 
d="M278 519q106 0 169.5 -72.5t63.5 -191.5q0 -115 -63.5 -191t-175.5 -76q-107 0 -170 74t-63 191q0 116 63.5 191t175.5 75zM274 446q-70 0 -107.5 -52t-37.5 -140q0 -85 40 -139t107 -54q68 0 106.5 52.5t38.5 139.5t-38.5 140t-108.5 53zM232 734h83l111 -152h-86
l-67 101l-66 -101h-85z" />
    <glyph glyph-name="otilde" unicode="&#xf5;" horiz-adv-x="550" 
d="M278 519q106 0 169.5 -72.5t63.5 -191.5q0 -115 -63.5 -191t-175.5 -76q-107 0 -170 74t-63 191q0 116 63.5 191t175.5 75zM274 446q-70 0 -107.5 -52t-37.5 -140q0 -85 40 -139t107 -54q68 0 106.5 52.5t38.5 139.5t-38.5 140t-108.5 53zM181 605h-62v23q0 96 81 96
q30 0 77 -24.5t63 -24.5q28 0 28 42v10h61v-21q0 -102 -83 -102q-30 0 -75 25t-64 25q-26 0 -26 -33v-16z" />
    <glyph glyph-name="odieresis" unicode="&#xf6;" horiz-adv-x="550" 
d="M278 519q106 0 169.5 -72.5t63.5 -191.5q0 -115 -63.5 -191t-175.5 -76q-107 0 -170 74t-63 191q0 116 63.5 191t175.5 75zM274 446q-70 0 -107.5 -52t-37.5 -140q0 -85 40 -139t107 -54q68 0 106.5 52.5t38.5 139.5t-38.5 140t-108.5 53zM221 625h-77v109h77v-109z
M403 625h-76v109h76v-109z" />
    <glyph glyph-name="divide" unicode="&#xf7;" horiz-adv-x="713" 
d="M395 0h-78v130h78v-130zM630 242h-547v78h547v-78zM395 428h-78v131h78v-131z" />
    <glyph glyph-name="oslash" unicode="&#xf8;" horiz-adv-x="550" 
d="M278 519q75 0 130 -38l24 33h61l-47 -66q65 -73 65 -195q0 -121 -65.5 -193.5t-174.5 -72.5q-74 0 -128 37l-25 -34h-60l48 67q-68 74 -68 195q0 123 67 195t173 72zM274 449q-72 0 -110.5 -53t-38.5 -142q0 -75 30 -127l209 292q-38 30 -90 30zM275 57q69 0 109 52.5
t40 142.5q0 80 -28 127l-208 -291q36 -31 87 -31z" />
    <glyph glyph-name="ugrave" unicode="&#xf9;" horiz-adv-x="557" 
d="M482 507v-359q0 -28 0.5 -82t0.5 -66h-85q-2 13 -4 76q-39 -88 -153 -88q-73 0 -120.5 43.5t-47.5 142.5v333h87v-315q0 -128 105 -128q69 0 99 41.5t30 137.5v264h88zM98 744h109l128 -153h-83z" />
    <glyph glyph-name="uacute" unicode="&#xfa;" horiz-adv-x="557" 
d="M482 507v-359q0 -28 0.5 -82t0.5 -66h-85q-2 13 -4 76q-39 -88 -153 -88q-73 0 -120.5 43.5t-47.5 142.5v333h87v-315q0 -128 105 -128q69 0 99 41.5t30 137.5v264h88zM352 744h108l-154 -153h-82z" />
    <glyph glyph-name="ucircumflex" unicode="&#xfb;" horiz-adv-x="557" 
d="M482 507v-359q0 -28 0.5 -82t0.5 -66h-85q-2 13 -4 76q-39 -88 -153 -88q-73 0 -120.5 43.5t-47.5 142.5v333h87v-315q0 -128 105 -128q69 0 99 41.5t30 137.5v264h88zM236 734h83l111 -152h-86l-67 101l-66 -101h-85z" />
    <glyph glyph-name="udieresis" unicode="&#xfc;" horiz-adv-x="557" 
d="M482 507v-359q0 -28 0.5 -82t0.5 -66h-85q-2 13 -4 76q-39 -88 -153 -88q-73 0 -120.5 43.5t-47.5 142.5v333h87v-315q0 -128 105 -128q69 0 99 41.5t30 137.5v264h88zM225 625h-77v109h77v-109zM407 625h-76v109h76v-109z" />
    <glyph glyph-name="yacute" unicode="&#xfd;" horiz-adv-x="481" 
d="M10 507h95q126 -374 141 -429h1q26 93 135 429h88l-182 -530q-38 -112 -77 -149t-116 -37q-25 0 -55 3v76q26 -2 42 -2q47 0 71 23.5t47 88.5zM311 744h108l-154 -153h-82z" />
    <glyph glyph-name="thorn" unicode="&#xfe;" horiz-adv-x="570" 
d="M162 -205h-87v939h87v-307q49 90 164 90q90 0 147 -68t57 -184q1 -129 -62.5 -202.5t-161.5 -73.5q-100 0 -144 74v-268zM441 261q0 83 -37.5 132t-100.5 49q-72 0 -108.5 -52t-36.5 -136q0 -190 139 -190q67 0 105.5 53t38.5 144z" />
    <glyph glyph-name="ydieresis" unicode="&#xff;" horiz-adv-x="481" 
d="M10 507h95q126 -374 141 -429h1q26 93 135 429h88l-182 -530q-38 -112 -77 -149t-116 -37q-25 0 -55 3v76q26 -2 42 -2q47 0 71 23.5t47 88.5zM187 625h-77v109h77v-109zM369 625h-76v109h76v-109z" />
    <glyph glyph-name="Amacron" unicode="&#x100;" horiz-adv-x="660" 
d="M464 209h-277l-75 -209h-92l248 696h113l259 -696h-99zM211 288h230q-105 286 -118 333h-1q-12 -41 -111 -333zM186 845h280v-69h-280v69z" />
    <glyph glyph-name="amacron" unicode="&#x101;" horiz-adv-x="529" 
d="M453 353v-242q0 -76 7 -111h-84q-6 18 -8 66q-43 -78 -157 -78q-84 0 -127.5 45.5t-43.5 109.5q0 165 240 165h86v43q0 99 -109 99q-30 0 -50.5 -6.5t-32 -20t-16.5 -25t-9 -29.5h-85q6 63 51.5 106.5t144.5 43.5q193 0 193 -166zM367 231v16h-82q-78 0 -116.5 -23.5
t-38.5 -75.5q0 -41 26.5 -66t72.5 -25q44 0 73 13.5t42.5 40t18 54t4.5 66.5zM126 699h277v-71h-277v71z" />
    <glyph glyph-name="Abreve" unicode="&#x102;" horiz-adv-x="660" 
d="M464 209h-277l-75 -209h-92l248 696h113l259 -696h-99zM211 288h230q-105 286 -118 333h-1q-12 -41 -111 -333zM171 884h68q6 -30 28.5 -48.5t58.5 -18.5q73 0 88 67h67q-9 -58 -48.5 -94.5t-107.5 -36.5q-72 0 -110.5 38t-43.5 93z" />
    <glyph glyph-name="abreve" unicode="&#x103;" horiz-adv-x="529" 
d="M453 353v-242q0 -76 7 -111h-84q-6 18 -8 66q-43 -78 -157 -78q-84 0 -127.5 45.5t-43.5 109.5q0 165 240 165h86v43q0 99 -109 99q-30 0 -50.5 -6.5t-32 -20t-16.5 -25t-9 -29.5h-85q6 63 51.5 106.5t144.5 43.5q193 0 193 -166zM367 231v16h-82q-78 0 -116.5 -23.5
t-38.5 -75.5q0 -41 26.5 -66t72.5 -25q44 0 73 13.5t42.5 40t18 54t4.5 66.5zM120 723h65q16 -69 79 -69q38 0 55.5 18.5t25.5 50.5h64q-8 -60 -45 -98t-100 -38q-69 0 -104.5 39.5t-39.5 96.5z" />
    <glyph glyph-name="Aogonek" unicode="&#x104;" horiz-adv-x="660" 
d="M464 209h-277l-75 -209h-92l248 696h113l259 -696h-5q-66 -56 -66 -106q0 -25 15.5 -39t40.5 -14q35 0 57 9v-68q-29 -16 -80 -16q-54 0 -85.5 29.5t-31.5 80.5q0 60 62 124h-6zM211 288h230q-105 286 -118 333h-1q-12 -41 -111 -333z" />
    <glyph glyph-name="aogonek" unicode="&#x105;" horiz-adv-x="529" 
d="M453 353v-242q0 -76 7 -111h-1q-66 -56 -66 -106q0 -25 15.5 -39t40.5 -14q35 0 57 9v-68q-29 -16 -80 -16q-54 0 -85.5 29.5t-31.5 80.5q0 62 66 128q-5 16 -7 62q-43 -78 -157 -78q-84 0 -127.5 45.5t-43.5 109.5q0 165 240 165h86v43q0 99 -109 99q-30 0 -50.5 -6.5
t-32 -20t-16.5 -25t-9 -29.5h-85q6 63 51.5 106.5t144.5 43.5q193 0 193 -166zM367 231v16h-82q-78 0 -116.5 -23.5t-38.5 -75.5q0 -41 26.5 -66t72.5 -25q44 0 73 13.5t42.5 40t18 54t4.5 66.5z" />
    <glyph glyph-name="Cacute" unicode="&#x106;" horiz-adv-x="686" 
d="M550 197h93q-25 -94 -94.5 -150t-182.5 -56q-150 0 -231.5 100t-81.5 255q0 97 34 177t107.5 131.5t174.5 51.5q117 0 187 -58.5t87 -151.5h-92q-44 133 -185 133q-56 0 -98.5 -23.5t-67.5 -64t-37.5 -89t-12.5 -103.5q0 -54 12 -102t37 -89.5t69 -65.5t102 -24
q130 0 180 129zM443 901h115l-171 -137h-91z" />
    <glyph glyph-name="cacute" unicode="&#x107;" horiz-adv-x="506" 
d="M388 155h87q-18 -73 -68.5 -120t-140.5 -47q-105 0 -165.5 70.5t-60.5 192.5q0 113 61.5 190.5t170.5 77.5q52 0 92 -17t62.5 -43.5t34.5 -54t14 -54.5h-87q-23 96 -118 96q-66 0 -103 -52t-37 -140t36 -140.5t101 -52.5q88 0 121 94zM335 744h108l-154 -153h-82z" />
    <glyph glyph-name="Ccircumflex" unicode="&#x108;" horiz-adv-x="686" 
d="M550 197h93q-25 -94 -94.5 -150t-182.5 -56q-150 0 -231.5 100t-81.5 255q0 97 34 177t107.5 131.5t174.5 51.5q117 0 187 -58.5t87 -151.5h-92q-44 133 -185 133q-56 0 -98.5 -23.5t-67.5 -64t-37.5 -89t-12.5 -103.5q0 -54 12 -102t37 -89.5t69 -65.5t102 -24
q130 0 180 129zM318 892h92l130 -131h-93l-84 83l-89 -83h-92z" />
    <glyph glyph-name="ccircumflex" unicode="&#x109;" horiz-adv-x="506" 
d="M388 155h87q-18 -73 -68.5 -120t-140.5 -47q-105 0 -165.5 70.5t-60.5 192.5q0 113 61.5 190.5t170.5 77.5q52 0 92 -17t62.5 -43.5t34.5 -54t14 -54.5h-87q-23 96 -118 96q-66 0 -103 -52t-37 -140t36 -140.5t101 -52.5q88 0 121 94zM225 734h83l111 -152h-86l-67 101
l-66 -101h-85z" />
    <glyph glyph-name="Cdotaccent" unicode="&#x10a;" horiz-adv-x="686" 
d="M550 197h93q-25 -94 -94.5 -150t-182.5 -56q-150 0 -231.5 100t-81.5 255q0 97 34 177t107.5 131.5t174.5 51.5q117 0 187 -58.5t87 -151.5h-92q-44 133 -185 133q-56 0 -98.5 -23.5t-67.5 -64t-37.5 -89t-12.5 -103.5q0 -54 12 -102t37 -89.5t69 -65.5t102 -24
q130 0 180 129zM404 778h-90v109h90v-109z" />
    <glyph glyph-name="cdotaccent" unicode="&#x10b;" horiz-adv-x="506" 
d="M388 155h87q-18 -73 -68.5 -120t-140.5 -47q-105 0 -165.5 70.5t-60.5 192.5q0 113 61.5 190.5t170.5 77.5q52 0 92 -17t62.5 -43.5t34.5 -54t14 -54.5h-87q-23 96 -118 96q-66 0 -103 -52t-37 -140t36 -140.5t101 -52.5q88 0 121 94zM310 625h-86v109h86v-109z" />
    <glyph glyph-name="Ccaron" unicode="&#x10c;" horiz-adv-x="686" 
d="M550 197h93q-25 -94 -94.5 -150t-182.5 -56q-150 0 -231.5 100t-81.5 255q0 97 34 177t107.5 131.5t174.5 51.5q117 0 187 -58.5t87 -151.5h-92q-44 133 -185 133q-56 0 -98.5 -23.5t-67.5 -64t-37.5 -89t-12.5 -103.5q0 -54 12 -102t37 -89.5t69 -65.5t102 -24
q130 0 180 129zM409 761h-89l-132 131h93l84 -83l89 83h92z" />
    <glyph glyph-name="ccaron" unicode="&#x10d;" horiz-adv-x="506" 
d="M388 155h87q-18 -73 -68.5 -120t-140.5 -47q-105 0 -165.5 70.5t-60.5 192.5q0 113 61.5 190.5t170.5 77.5q52 0 92 -17t62.5 -43.5t34.5 -54t14 -54.5h-87q-23 96 -118 96q-66 0 -103 -52t-37 -140t36 -140.5t101 -52.5q88 0 121 94zM310 582h-85l-110 152h85l68 -100
l66 100h85z" />
    <glyph glyph-name="Dcaron" unicode="&#x10e;" horiz-adv-x="721" 
d="M92 0v696h248q148 0 238 -93t90 -248q0 -156 -90.5 -255.5t-240.5 -99.5h-245zM184 617v-539h146q118 0 179.5 76t61.5 199q0 112 -60.5 188t-180.5 76h-146zM366 763h-89l-132 131h93l84 -83l89 83h92z" />
    <glyph glyph-name="dcaron" unicode="&#x10f;" horiz-adv-x="609" 
d="M409 734h88v-591q0 -94 1 -143h-84q-5 22 -5 72q-40 -84 -159 -84q-97 0 -154 71.5t-57 188.5q0 119 62 195t165 76q61 0 96 -19.5t47 -45.5v280zM130 251q0 -89 38 -139t100 -50q82 0 113.5 52.5t31.5 146.5q0 93 -29 138.5t-109 45.5q-68 0 -106.5 -51t-38.5 -143z
M628 485h-65l-4 249h73z" />
    <glyph glyph-name="Dcroat" unicode="&#x110;" horiz-adv-x="730" 
d="M18 393h84v303h248q148 0 238 -93t90 -248q0 -156 -90.5 -255.5t-240.5 -99.5h-245v323h-84v70zM194 617v-224h180v-70h-180v-245h146q118 0 179.5 76t61.5 199q0 112 -60.5 188t-180.5 76h-146z" />
    <glyph glyph-name="dcroat" unicode="&#x111;" horiz-adv-x="571" 
d="M409 734h88v-87h70v-58h-70v-446q0 -94 1 -143h-84q-5 22 -5 77q-42 -89 -160 -89q-98 0 -154 73.5t-56 184.5q0 114 62 191.5t165 77.5q113 0 143 -70v144h-224v58h224v87zM130 251q0 -85 38.5 -136t99.5 -51q145 0 145 197q0 178 -137 178q-66 0 -106 -50t-40 -138z
" />
    <glyph glyph-name="Emacron" unicode="&#x112;" horiz-adv-x="597" 
d="M528 404v-79h-346v-246h380l-12 -79h-458v696h453v-79h-363v-213h346zM181 858h280v-69h-280v69z" />
    <glyph glyph-name="emacron" unicode="&#x113;" horiz-adv-x="523" 
d="M485 238h-358q1 -79 38.5 -128t100.5 -49q54 0 80.5 21.5t41.5 57.5h89q-8 -28 -22.5 -52t-39 -48t-64 -38t-88.5 -14q-111 0 -167.5 76t-56.5 184q0 119 59.5 195t170.5 76q59 0 103 -21.5t67.5 -58t35 -76.5t11.5 -83q0 -29 -1 -42zM130 299h267q-1 66 -34 108.5
t-95 42.5q-123 0 -138 -151zM133 699h277v-71h-277v71z" />
    <glyph glyph-name="Ebreve" unicode="&#x114;" horiz-adv-x="597" 
d="M528 404v-79h-346v-246h380l-12 -79h-458v696h453v-79h-363v-213h346zM168 888h68q6 -30 28.5 -48.5t58.5 -18.5q73 0 88 67h67q-9 -58 -48.5 -94.5t-107.5 -36.5q-72 0 -110.5 38t-43.5 93z" />
    <glyph glyph-name="ebreve" unicode="&#x115;" horiz-adv-x="523" 
d="M485 238h-358q1 -79 38.5 -128t100.5 -49q54 0 80.5 21.5t41.5 57.5h89q-8 -28 -22.5 -52t-39 -48t-64 -38t-88.5 -14q-111 0 -167.5 76t-56.5 184q0 119 59.5 195t170.5 76q59 0 103 -21.5t67.5 -58t35 -76.5t11.5 -83q0 -29 -1 -42zM130 299h267q-1 66 -34 108.5
t-95 42.5q-123 0 -138 -151zM127 723h65q16 -69 79 -69q38 0 55.5 18.5t25.5 50.5h64q-8 -60 -45 -98t-100 -38q-69 0 -104.5 39.5t-39.5 96.5z" />
    <glyph glyph-name="Edotaccent" unicode="&#x116;" horiz-adv-x="597" 
d="M528 404v-79h-346v-246h380l-12 -79h-458v696h453v-79h-363v-213h346zM364 776h-90v109h90v-109z" />
    <glyph glyph-name="edotaccent" unicode="&#x117;" horiz-adv-x="523" 
d="M485 238h-358q1 -79 38.5 -128t100.5 -49q54 0 80.5 21.5t41.5 57.5h89q-8 -28 -22.5 -52t-39 -48t-64 -38t-88.5 -14q-111 0 -167.5 76t-56.5 184q0 119 59.5 195t170.5 76q59 0 103 -21.5t67.5 -58t35 -76.5t11.5 -83q0 -29 -1 -42zM130 299h267q-1 66 -34 108.5
t-95 42.5q-123 0 -138 -151zM315 625h-86v109h86v-109z" />
    <glyph glyph-name="Eogonek" unicode="&#x118;" horiz-adv-x="597" 
d="M528 404v-79h-346v-246h380l-12 -79h-35q-66 -56 -66 -106q0 -25 15.5 -39t40.5 -14q35 0 57 9v-68q-29 -16 -80 -16q-54 0 -85.5 29.5t-31.5 80.5q0 60 62 124h-335v696h453v-79h-363v-213h346z" />
    <glyph glyph-name="eogonek" unicode="&#x119;" horiz-adv-x="523" 
d="M485 238h-358q1 -79 38.5 -128t100.5 -49q54 0 80.5 21.5t41.5 57.5h89q-32 -103 -124 -137q-61 -53 -61 -102q0 -25 15.5 -39t40.5 -14q34 0 57 9v-68q-29 -16 -80 -16q-54 0 -85.5 29.5t-31.5 80.5t45 105q-107 4 -160.5 79.5t-53.5 180.5q0 119 59.5 195t170.5 76
q59 0 103 -21.5t67.5 -58t35 -76.5t11.5 -83q0 -29 -1 -42zM130 299h267q-1 66 -34 108.5t-95 42.5q-123 0 -138 -151z" />
    <glyph glyph-name="Ecaron" unicode="&#x11a;" horiz-adv-x="597" 
d="M528 404v-79h-346v-246h380l-12 -79h-458v696h453v-79h-363v-213h346zM365 758h-89l-132 131h93l84 -83l89 83h92z" />
    <glyph glyph-name="ecaron" unicode="&#x11b;" horiz-adv-x="523" 
d="M485 238h-358q1 -79 38.5 -128t100.5 -49q54 0 80.5 21.5t41.5 57.5h89q-8 -28 -22.5 -52t-39 -48t-64 -38t-88.5 -14q-111 0 -167.5 76t-56.5 184q0 119 59.5 195t170.5 76q59 0 103 -21.5t67.5 -58t35 -76.5t11.5 -83q0 -29 -1 -42zM130 299h267q-1 66 -34 108.5
t-95 42.5q-123 0 -138 -151zM315 582h-85l-110 152h85l68 -100l66 100h85z" />
    <glyph glyph-name="Gcircumflex" unicode="&#x11c;" horiz-adv-x="728" 
d="M656 376v-376h-71q-8 20 -9 94q-63 -103 -216 -103q-146 0 -226.5 98t-80.5 252q0 161 85.5 263t238.5 102q119 0 193.5 -58t89.5 -154h-92q-42 135 -193 135q-114 0 -169.5 -79t-55.5 -205q0 -75 21.5 -135.5t73 -101t126.5 -40.5q195 0 195 221v8h-196v79h286zM327 889
h92l130 -131h-93l-84 83l-89 -83h-92z" />
    <glyph glyph-name="gcircumflex" unicode="&#x11d;" horiz-adv-x="567" 
d="M493 361v-315q0 -126 -56 -190.5t-177 -64.5q-104 0 -153 45.5t-57 109.5h89q23 -85 125 -85q81 0 112 47t31 142v41q-43 -89 -158 -89q-94 0 -152 69.5t-58 181.5q0 121 62.5 193.5t156.5 72.5q66 0 102.5 -24t46.5 -55q1 30 5 67h82q0 -12 -0.5 -66t-0.5 -80zM130 257
q0 -80 38.5 -130t100.5 -50q77 0 109 48t32 138q0 91 -30.5 136.5t-107.5 45.5q-68 0 -105 -51.5t-37 -136.5zM241 734h83l111 -152h-86l-67 101l-66 -101h-85z" />
    <glyph glyph-name="Gbreve" unicode="&#x11e;" horiz-adv-x="728" 
d="M656 376v-376h-71q-8 20 -9 94q-63 -103 -216 -103q-146 0 -226.5 98t-80.5 252q0 161 85.5 263t238.5 102q119 0 193.5 -58t89.5 -154h-92q-42 135 -193 135q-114 0 -169.5 -79t-55.5 -205q0 -75 21.5 -135.5t73 -101t126.5 -40.5q195 0 195 221v8h-196v79h286zM216 893
h68q6 -30 28.5 -48.5t58.5 -18.5q73 0 88 67h67q-9 -58 -48.5 -94.5t-107.5 -36.5q-72 0 -110.5 38t-43.5 93z" />
    <glyph glyph-name="gbreve" unicode="&#x11f;" horiz-adv-x="567" 
d="M493 361v-315q0 -126 -56 -190.5t-177 -64.5q-104 0 -153 45.5t-57 109.5h89q23 -85 125 -85q81 0 112 47t31 142v41q-43 -89 -158 -89q-94 0 -152 69.5t-58 181.5q0 121 62.5 193.5t156.5 72.5q66 0 102.5 -24t46.5 -55q1 30 5 67h82q0 -12 -0.5 -66t-0.5 -80zM130 257
q0 -80 38.5 -130t100.5 -50q77 0 109 48t32 138q0 91 -30.5 136.5t-107.5 45.5q-68 0 -105 -51.5t-37 -136.5zM138 723h65q16 -69 79 -69q38 0 55.5 18.5t25.5 50.5h64q-8 -60 -45 -98t-100 -38q-69 0 -104.5 39.5t-39.5 96.5z" />
    <glyph glyph-name="Gdotaccent" unicode="&#x120;" horiz-adv-x="728" 
d="M656 376v-376h-71q-8 20 -9 94q-63 -103 -216 -103q-146 0 -226.5 98t-80.5 252q0 161 85.5 263t238.5 102q119 0 193.5 -58t89.5 -154h-92q-42 135 -193 135q-114 0 -169.5 -79t-55.5 -205q0 -75 21.5 -135.5t73 -101t126.5 -40.5q195 0 195 221v8h-196v79h286zM415 770
h-90v109h90v-109z" />
    <glyph glyph-name="gdotaccent" unicode="&#x121;" horiz-adv-x="567" 
d="M493 361v-315q0 -126 -56 -190.5t-177 -64.5q-104 0 -153 45.5t-57 109.5h89q23 -85 125 -85q81 0 112 47t31 142v41q-43 -89 -158 -89q-94 0 -152 69.5t-58 181.5q0 121 62.5 193.5t156.5 72.5q66 0 102.5 -24t46.5 -55q1 30 5 67h82q0 -12 -0.5 -66t-0.5 -80zM130 257
q0 -80 38.5 -130t100.5 -50q77 0 109 48t32 138q0 91 -30.5 136.5t-107.5 45.5q-68 0 -105 -51.5t-37 -136.5zM326 625h-86v109h86v-109z" />
    <glyph glyph-name="uni0122" unicode="&#x122;" horiz-adv-x="728" 
d="M656 376v-376h-71q-8 20 -9 94q-63 -103 -216 -103q-146 0 -226.5 98t-80.5 252q0 161 85.5 263t238.5 102q119 0 193.5 -58t89.5 -154h-92q-42 135 -193 135q-114 0 -169.5 -79t-55.5 -205q0 -75 21.5 -135.5t73 -101t126.5 -40.5q195 0 195 221v8h-196v79h286z
M359 -252h-74q50 106 56 198h89q-3 -51 -24 -108t-47 -90z" />
    <glyph glyph-name="uni0123" unicode="&#x123;" horiz-adv-x="567" 
d="M294 787h78q-56 -123 -62 -202h-87q4 49 24.5 105.5t46.5 96.5zM493 361v-315q0 -126 -56 -190.5t-177 -64.5q-104 0 -153 45.5t-57 109.5h89q23 -85 125 -85q81 0 112 47t31 142v41q-43 -89 -158 -89q-94 0 -152 69.5t-58 181.5q0 121 62.5 193.5t156.5 72.5
q66 0 102.5 -24t46.5 -55q1 30 5 67h82q0 -12 -0.5 -66t-0.5 -80zM130 257q0 -80 38.5 -130t100.5 -50q77 0 109 48t32 138q0 91 -30.5 136.5t-107.5 45.5q-68 0 -105 -51.5t-37 -136.5z" />
    <glyph glyph-name="Hcircumflex" unicode="&#x124;" horiz-adv-x="730" 
d="M92 0v696h92v-291h362v291h93v-696h-93v326h-362v-326h-92zM322 889h92l130 -131h-93l-84 83l-89 -83h-92z" />
    <glyph glyph-name="hcircumflex" unicode="&#x125;" horiz-adv-x="566" 
d="M62 895h112l109 -109h-94l-71 64l-70 -64h-93zM75 734h88v-302q48 87 158 87q71 0 121 -45.5t50 -149.5v-324h-88v309q0 134 -110 134q-131 0 -131 -166v-277h-88v734z" />
    <glyph glyph-name="Hbar" unicode="&#x126;" horiz-adv-x="730" 
d="M26 585h66v111h92v-111h362v111h93v-111h65v-69h-65v-516h-93v326h-362v-326h-92v516h-66v69zM184 405h362v111h-362v-111z" />
    <glyph glyph-name="hbar" unicode="&#x127;" horiz-adv-x="566" 
d="M75 734h88v-87h209v-58h-209v-164q48 90 161 90q71 0 119.5 -45.5t48.5 -150.5v-319h-88v305q0 134 -108 134q-65 0 -99 -43.5t-34 -119.5v-276h-88v589h-83v58h83v87z" />
    <glyph glyph-name="Itilde" unicode="&#x128;" horiz-adv-x="276" 
d="M92 696h92v-696h-92v696zM32 766h-64v22q0 98 86 98q34 0 90 -26.5t71 -26.5q32 0 32 43v12h61v-21q0 -56 -21.5 -79.5t-63.5 -23.5q-31 0 -87 26.5t-75 26.5q-29 0 -29 -34v-17z" />
    <glyph glyph-name="itilde" unicode="&#x129;" horiz-adv-x="237" 
d="M75 0v507h88v-507h-88zM26 605h-62v23q0 96 81 96q31 0 78 -24.5t62 -24.5q28 0 28 42v10h61v-21q0 -102 -83 -102q-30 0 -75 25t-64 25q-26 0 -26 -33v-16z" />
    <glyph glyph-name="Imacron" unicode="&#x12a;" horiz-adv-x="276" 
d="M92 696h92v-696h-92v696zM-2 845h280v-69h-280v69z" />
    <glyph glyph-name="imacron" unicode="&#x12b;" horiz-adv-x="237" 
d="M75 0v507h88v-507h-88zM-20 699h277v-71h-277v71z" />
    <glyph glyph-name="Iogonek" unicode="&#x12e;" horiz-adv-x="276" 
d="M92 696h92v-696h-4q-66 -56 -66 -106q0 -25 15.5 -39t40.5 -14q35 0 57 9v-68q-29 -16 -80 -16q-54 0 -85.5 29.5t-31.5 80.5q0 60 62 124v696z" />
    <glyph glyph-name="iogonek" unicode="&#x12f;" horiz-adv-x="237" 
d="M207 -218q-29 -16 -80 -16q-54 0 -85.5 29.5t-31.5 80.5q0 64 65 127v504h88v-507h-3q-66 -56 -66 -106q0 -25 15.5 -39t40.5 -14q35 0 57 9v-68zM163 625h-88v109h88v-109z" />
    <glyph glyph-name="Idotaccent" unicode="&#x130;" horiz-adv-x="276" 
d="M92 696h92v-696h-92v696zM183 770h-90v109h90v-109z" />
    <glyph glyph-name="dotlessi" unicode="&#x131;" horiz-adv-x="237" 
d="M75 0v507h88v-507h-88z" />
    <glyph glyph-name="Jcircumflex" unicode="&#x134;" horiz-adv-x="368" 
d="M281 696v-493q0 -114 -44 -163.5t-135 -49.5q-38 0 -73 7v77q22 -5 64 -5q57 0 76 34.5t19 96.5v496h93zM191 889h92l130 -131h-93l-84 83l-89 -83h-92z" />
    <glyph glyph-name="jcircumflex" unicode="&#x135;" horiz-adv-x="237" 
d="M75 507h88v-524q0 -107 -31 -149.5t-112 -42.5q-18 0 -34 2v74q8 -1 22 -1q39 0 53 23.5t14 78.5v539zM77 734h83l111 -152h-86l-67 101l-66 -101h-85z" />
    <glyph glyph-name="uni0136" unicode="&#x136;" horiz-adv-x="639" 
d="M92 0v696h91v-342q20 20 148.5 149t189.5 193h115l-299 -294l314 -402h-112l-267 343l-89 -81v-262h-91zM316 -252h-74q50 106 56 198h89q-3 -51 -24 -108t-47 -90z" />
    <glyph glyph-name="uni0137" unicode="&#x137;" horiz-adv-x="505" 
d="M163 734v-469q24 29 112.5 124t109.5 118h105l-191 -197l213 -310h-103l-170 253l-76 -73v-180h-88v734h88zM246 -252h-74q50 106 56 198h89q-3 -51 -24 -108t-47 -90z" />
    <glyph glyph-name="kgreenlandic" unicode="&#x138;" horiz-adv-x="502" 
d="M163 507v-241q19 23 58.5 66.5t90.5 98t71 76.5h104q-32 -33 -99 -101.5t-99 -101.5q24 -34 101.5 -141.5t118.5 -162.5h-103q-20 29 -84.5 118.5t-92.5 129.5l-66 -66v-182h-88v507h88z" />
    <glyph glyph-name="Lacute" unicode="&#x139;" horiz-adv-x="561" 
d="M92 0v696h92v-617h363l-13 -79h-442zM238 896h115l-171 -137h-91z" />
    <glyph glyph-name="lacute" unicode="&#x13a;" horiz-adv-x="237" 
d="M195 907h112l-148 -119h-86zM163 0h-88v734h88v-734z" />
    <glyph glyph-name="uni013B" unicode="&#x13b;" horiz-adv-x="561" 
d="M92 0v696h92v-617h363l-13 -79h-442zM299 -252h-74q50 106 56 198h89q-3 -51 -24 -108t-47 -90z" />
    <glyph glyph-name="uni013C" unicode="&#x13c;" horiz-adv-x="237" 
d="M163 0h-88v734h88v-734zM93 -252h-74q50 106 56 198h89q-3 -51 -24 -108t-47 -90z" />
    <glyph glyph-name="Lcaron" unicode="&#x13d;" horiz-adv-x="561" 
d="M92 0v696h92v-617h363l-13 -79h-442zM419 448h-65l-4 249h73z" />
    <glyph glyph-name="lcaron" unicode="&#x13e;" horiz-adv-x="292" 
d="M163 0h-88v734h88v-734zM303 485h-65l-4 249h73z" />
    <glyph glyph-name="Ldot" unicode="&#x13f;" horiz-adv-x="561" 
d="M441 308h-88v144h88v-144zM92 0v696h92v-617h363l-13 -79h-442z" />
    <glyph glyph-name="ldot" unicode="&#x140;" horiz-adv-x="272" 
d="M291 363h-81v144h81v-144zM163 0h-88v734h88v-734z" />
    <glyph glyph-name="Lslash" unicode="&#x141;" horiz-adv-x="571" 
d="M347 428l-153 -72v-277h363l-13 -79h-442v312l-92 -43v69l92 44v314h92v-270l153 74v-72z" />
    <glyph glyph-name="lslash" unicode="&#x142;" horiz-adv-x="253" 
d="M171 0h-88v350l-65 -35v78l65 36v305h88v-257l72 39v-79l-72 -39v-398z" />
    <glyph glyph-name="Nacute" unicode="&#x143;" horiz-adv-x="744" 
d="M179 0h-87v696h122q22 -36 119 -193t158.5 -257t78.5 -134h1q-6 76 -6 312v272h87v-696h-115q-312 512 -361 601h-2q5 -79 5 -323v-278zM464 895h115l-171 -137h-91z" />
    <glyph glyph-name="nacute" unicode="&#x144;" horiz-adv-x="566" 
d="M75 0v379q0 89 -1 128h85q4 -20 4 -83q44 95 159 95q76 0 123 -48t47 -145v-326h-88v315q0 128 -107 128q-69 0 -101.5 -47t-32.5 -128v-268h-88zM356 744h108l-154 -153h-82z" />
    <glyph glyph-name="uni0145" unicode="&#x145;" horiz-adv-x="744" 
d="M179 0h-87v696h122q22 -36 119 -193t158.5 -257t78.5 -134h1q-6 76 -6 312v272h87v-696h-115q-312 512 -361 601h-2q5 -79 5 -323v-278zM361 -252h-74q50 106 56 198h89q-3 -51 -24 -108t-47 -90z" />
    <glyph glyph-name="uni0146" unicode="&#x146;" horiz-adv-x="566" 
d="M75 0v379q0 89 -1 128h85q4 -20 4 -83q44 95 159 95q76 0 123 -48t47 -145v-326h-88v315q0 128 -107 128q-69 0 -101.5 -47t-32.5 -128v-268h-88zM260 -252h-74q50 106 56 198h89q-3 -51 -24 -108t-47 -90z" />
    <glyph glyph-name="Ncaron" unicode="&#x147;" horiz-adv-x="744" 
d="M179 0h-87v696h122q22 -36 119 -193t158.5 -257t78.5 -134h1q-6 76 -6 312v272h87v-696h-115q-312 512 -361 601h-2q5 -79 5 -323v-278zM416 757h-89l-132 131h93l84 -83l89 83h92z" />
    <glyph glyph-name="ncaron" unicode="&#x148;" horiz-adv-x="566" 
d="M75 0v379q0 89 -1 128h85q4 -20 4 -83q44 95 159 95q76 0 123 -48t47 -145v-326h-88v315q0 128 -107 128q-69 0 -101.5 -47t-32.5 -128v-268h-88zM326 586h-85l-110 152h85l68 -100l66 100h85z" />
    <glyph glyph-name="napostrophe" unicode="&#x149;" horiz-adv-x="566" 
d="M82 581h-67q30 99 36 201h85q-3 -53 -18.5 -110t-35.5 -91zM75 0v379q0 89 -1 128h85q4 -20 4 -83q44 95 159 95q76 0 123 -48t47 -145v-326h-88v315q0 128 -107 128q-69 0 -101.5 -47t-32.5 -128v-268h-88z" />
    <glyph glyph-name="Omacron" unicode="&#x14c;" horiz-adv-x="751" 
d="M380 706q145 0 231.5 -98.5t86.5 -255.5q0 -154 -85 -258t-241 -104q-149 0 -234 101t-85 257q0 155 87 256.5t240 101.5zM376 627q-112 0 -169 -78.5t-57 -197.5t59.5 -200.5t166.5 -81.5q77 0 129.5 40.5t74.5 101.5t22 139q0 120 -58 198.5t-168 78.5zM236 857h280
v-69h-280v69z" />
    <glyph glyph-name="omacron" unicode="&#x14d;" horiz-adv-x="550" 
d="M278 519q106 0 169.5 -72.5t63.5 -191.5q0 -115 -63.5 -191t-175.5 -76q-107 0 -170 74t-63 191q0 116 63.5 191t175.5 75zM274 446q-70 0 -107.5 -52t-37.5 -140q0 -85 40 -139t107 -54q68 0 106.5 52.5t38.5 139.5t-38.5 140t-108.5 53zM135 699h277v-71h-277v71z" />
    <glyph glyph-name="Ohungarumlaut" unicode="&#x150;" horiz-adv-x="751" 
d="M380 706q145 0 231.5 -98.5t86.5 -255.5q0 -154 -85 -258t-241 -104q-149 0 -234 101t-85 257q0 155 87 256.5t240 101.5zM376 627q-112 0 -169 -78.5t-57 -197.5t59.5 -200.5t166.5 -81.5q77 0 129.5 40.5t74.5 101.5t22 139q0 120 -58 198.5t-168 78.5zM343 897h100
l-134 -137h-78zM524 897h99l-134 -137h-78z" />
    <glyph glyph-name="ohungarumlaut" unicode="&#x151;" horiz-adv-x="550" 
d="M278 519q106 0 169.5 -72.5t63.5 -191.5q0 -115 -63.5 -191t-175.5 -76q-107 0 -170 74t-63 191q0 116 63.5 191t175.5 75zM274 446q-70 0 -107.5 -52t-37.5 -140q0 -85 40 -139t107 -54q68 0 106.5 52.5t38.5 139.5t-38.5 140t-108.5 53zM206 580h-73l101 155h92z
M388 580h-73l101 155h93z" />
    <glyph glyph-name="OE" unicode="&#x152;" horiz-adv-x="1018" 
d="M966 696v-81h-343v-210h325v-81h-325v-243h360l-11 -81h-419q-81 -9 -137 -9q-173 0 -268 99t-95 258q0 152 100.5 253.5t273.5 101.5q71 0 134 -7h405zM530 78v539q-29 8 -104 8q-125 0 -200.5 -71t-75.5 -203q0 -134 74.5 -208t197.5 -74q77 0 108 9z" />
    <glyph glyph-name="oe" unicode="&#x153;" horiz-adv-x="907" 
d="M647 -12q-124 0 -182 107q-64 -107 -193 -107q-107 0 -170 74t-63 191q0 116 63.5 191t175.5 75q128 0 189 -107q59 107 186 107q56 0 99.5 -21.5t68 -57t37 -75.5t12.5 -82q0 -32 -2 -45h-357q1 -79 39 -128t100 -49q88 0 122 79h88q-19 -61 -70.5 -106.5t-142.5 -45.5z
M274 446q-70 0 -107.5 -52t-37.5 -140q0 -85 40 -139t107 -54q68 0 106.5 52.5t38.5 139.5t-38.5 140t-108.5 53zM514 299h267q-1 66 -35.5 108t-94.5 43q-62 1 -96 -39.5t-41 -111.5z" />
    <glyph glyph-name="Racute" unicode="&#x154;" horiz-adv-x="642" 
d="M325 306h-142v-306h-91v696h272q104 0 161.5 -51.5t57.5 -134.5q0 -65 -33 -107.5t-86 -56.5q106 -28 106 -178v-30q0 -114 10 -138h-90q-12 28 -12 150v14q0 78 -31.5 110t-121.5 32zM183 618v-234h151q153 0 153 118q0 56 -36 86t-106 30h-162zM413 895h115l-171 -137
h-91z" />
    <glyph glyph-name="racute" unicode="&#x155;" horiz-adv-x="352" 
d="M75 0v369q0 41 -0.5 85.5t-0.5 52.5h86q3 -42 3 -103q20 52 64 83t106 32v-87q-170 -5 -170 -186v-246h-88zM261 744h108l-154 -153h-82z" />
    <glyph glyph-name="uni0156" unicode="&#x156;" horiz-adv-x="642" 
d="M325 306h-142v-306h-91v696h272q104 0 161.5 -51.5t57.5 -134.5q0 -65 -33 -107.5t-86 -56.5q106 -28 106 -178v-30q0 -114 10 -138h-90q-12 28 -12 150v14q0 78 -31.5 110t-121.5 32zM183 618v-234h151q153 0 153 118q0 56 -36 86t-106 30h-162zM313 -252h-74
q50 106 56 198h89q-3 -51 -24 -108t-47 -90z" />
    <glyph glyph-name="uni0157" unicode="&#x157;" horiz-adv-x="352" 
d="M75 0v369q0 41 -0.5 85.5t-0.5 52.5h86q3 -42 3 -103q20 52 64 83t106 32v-87q-170 -5 -170 -186v-246h-88zM93 -252h-74q50 106 56 198h89q-3 -51 -24 -108t-47 -90z" />
    <glyph glyph-name="Rcaron" unicode="&#x158;" horiz-adv-x="642" 
d="M325 306h-142v-306h-91v696h272q104 0 161.5 -51.5t57.5 -134.5q0 -65 -33 -107.5t-86 -56.5q106 -28 106 -178v-30q0 -114 10 -138h-90q-12 28 -12 150v14q0 78 -31.5 110t-121.5 32zM183 618v-234h151q153 0 153 118q0 56 -36 86t-106 30h-162zM365 758h-89l-132 131
h93l84 -83l89 83h92z" />
    <glyph glyph-name="rcaron" unicode="&#x159;" horiz-adv-x="352" 
d="M75 0v369q0 41 -0.5 85.5t-0.5 52.5h86q3 -42 3 -103q20 52 64 83t106 32v-87q-170 -5 -170 -186v-246h-88zM235 582h-85l-110 152h85l68 -100l66 100h85z" />
    <glyph glyph-name="Sacute" unicode="&#x15a;" horiz-adv-x="606" 
d="M41 194h94q29 -129 177 -129q77 0 114 32t37 85q0 55 -36 86.5t-137 55.5q-121 30 -171 74.5t-50 119.5q0 82 59.5 135t171.5 53q115 0 175 -54.5t69 -132.5h-94q-24 112 -153 112q-64 0 -98 -27t-34 -77q0 -48 34 -73t127 -48q72 -17 119.5 -40.5t71.5 -52t33 -57
t9 -65.5q0 -88 -65 -144t-188 -56t-188 57t-77 146zM395 901h115l-171 -137h-91z" />
    <glyph glyph-name="sacute" unicode="&#x15b;" horiz-adv-x="473" 
d="M30 145h88q22 -88 124 -88q103 0 103 78q0 37 -24.5 56.5t-95.5 36.5q-103 25 -139 59t-36 90q0 59 46 100.5t137 41.5t138.5 -43t52.5 -103h-84q-20 78 -110 78q-49 0 -71 -19.5t-22 -47.5q0 -29 23 -46t91 -33q109 -26 147 -64t38 -99q0 -68 -52.5 -111t-144.5 -43
q-94 0 -146.5 42.5t-62.5 114.5zM304 744h108l-154 -153h-82z" />
    <glyph glyph-name="Scircumflex" unicode="&#x15c;" horiz-adv-x="606" 
d="M41 194h94q29 -129 177 -129q77 0 114 32t37 85q0 55 -36 86.5t-137 55.5q-121 30 -171 74.5t-50 119.5q0 82 59.5 135t171.5 53q115 0 175 -54.5t69 -132.5h-94q-24 112 -153 112q-64 0 -98 -27t-34 -77q0 -48 34 -73t127 -48q72 -17 119.5 -40.5t71.5 -52t33 -57
t9 -65.5q0 -88 -65 -144t-188 -56t-188 57t-77 146zM260 889h92l130 -131h-93l-84 83l-89 -83h-92z" />
    <glyph glyph-name="scircumflex" unicode="&#x15d;" horiz-adv-x="473" 
d="M30 145h88q22 -88 124 -88q103 0 103 78q0 37 -24.5 56.5t-95.5 36.5q-103 25 -139 59t-36 90q0 59 46 100.5t137 41.5t138.5 -43t52.5 -103h-84q-20 78 -110 78q-49 0 -71 -19.5t-22 -47.5q0 -29 23 -46t91 -33q109 -26 147 -64t38 -99q0 -68 -52.5 -111t-144.5 -43
q-94 0 -146.5 42.5t-62.5 114.5zM195 734h83l111 -152h-86l-67 101l-66 -101h-85z" />
    <glyph glyph-name="uni015E" unicode="&#x15e;" horiz-adv-x="606" 
d="M41 194h94q29 -129 177 -129q77 0 114 32t37 85q0 55 -36 86.5t-137 55.5q-121 30 -171 74.5t-50 119.5q0 82 59.5 135t171.5 53q115 0 175 -54.5t69 -132.5h-94q-24 112 -153 112q-64 0 -98 -27t-34 -77q0 -48 34 -73t127 -48q72 -17 119.5 -40.5t71.5 -52t33 -57
t9 -65.5q0 -81 -55.5 -135t-159.5 -63l-35 -44q97 -16 97 -94q0 -53 -37 -75t-87 -22q-46 0 -72 12v60q25 -11 65 -11q53 0 53 35q0 43 -103 45v28l49 65q-107 8 -164 64t-69 138z" />
    <glyph glyph-name="uni015F" unicode="&#x15f;" horiz-adv-x="473" 
d="M30 145h88q22 -88 124 -88q103 0 103 78q0 37 -24.5 56.5t-95.5 36.5q-103 25 -139 59t-36 90q0 59 46 100.5t137 41.5t138.5 -43t52.5 -103h-84q-20 78 -110 78q-49 0 -71 -19.5t-22 -47.5q0 -29 23 -46t91 -33q109 -26 147 -64t38 -99t-42 -102t-118 -50l-33 -41
q97 -16 97 -94q0 -53 -37 -75t-87 -22q-46 0 -72 12v60q25 -11 65 -11q53 0 53 35q0 43 -103 45v28l47 62q-79 8 -123 49.5t-53 106.5z" />
    <glyph glyph-name="Scaron" unicode="&#x160;" horiz-adv-x="606" 
d="M41 194h94q29 -129 177 -129q77 0 114 32t37 85q0 55 -36 86.5t-137 55.5q-121 30 -171 74.5t-50 119.5q0 82 59.5 135t171.5 53q115 0 175 -54.5t69 -132.5h-94q-24 112 -153 112q-64 0 -98 -27t-34 -77q0 -48 34 -73t127 -48q72 -17 119.5 -40.5t71.5 -52t33 -57
t9 -65.5q0 -88 -65 -144t-188 -56t-188 57t-77 146zM345 758h-89l-132 131h93l84 -83l89 83h92z" />
    <glyph glyph-name="scaron" unicode="&#x161;" horiz-adv-x="473" 
d="M30 145h88q22 -88 124 -88q103 0 103 78q0 37 -24.5 56.5t-95.5 36.5q-103 25 -139 59t-36 90q0 59 46 100.5t137 41.5t138.5 -43t52.5 -103h-84q-20 78 -110 78q-49 0 -71 -19.5t-22 -47.5q0 -29 23 -46t91 -33q109 -26 147 -64t38 -99q0 -68 -52.5 -111t-144.5 -43
q-94 0 -146.5 42.5t-62.5 114.5zM280 582h-85l-110 152h85l68 -100l66 100h85z" />
    <glyph glyph-name="uni0162" unicode="&#x162;" horiz-adv-x="558" 
d="M232 0v617h-224v79h542v-79h-225v-617h-6l-41 -51q97 -16 97 -94q0 -53 -37 -75t-87 -22q-46 0 -72 12v60q25 -11 65 -11q53 0 53 35q0 43 -103 45v28l55 73h-17z" />
    <glyph glyph-name="uni0163" unicode="&#x163;" horiz-adv-x="319" 
d="M10 436v71h88v150h87v-150h112v-71h-112v-297q0 -39 12.5 -57t45.5 -18q25 0 44 4v-66q-19 -7 -56 -9l-36 -44q97 -16 97 -94q0 -53 -37 -75t-87 -22q-46 0 -72 12v60q25 -11 65 -11q53 0 53 35q0 43 -103 45v28l55 72q-68 20 -68 119v318h-88z" />
    <glyph glyph-name="Tcaron" unicode="&#x164;" horiz-adv-x="558" 
d="M232 0v617h-224v79h542v-79h-225v-617h-93zM321 758h-89l-132 131h93l84 -83l89 83h92z" />
    <glyph glyph-name="tcaron" unicode="&#x165;" horiz-adv-x="319" 
d="M323 593h-58l-2 215h75zM10 436v71h88v150h87v-150h112v-71h-112v-297q0 -39 12.5 -57t45.5 -18q25 0 44 4v-66q-24 -9 -76 -9q-59 0 -86 30.5t-27 94.5v318h-88z" />
    <glyph glyph-name="Utilde" unicode="&#x168;" horiz-adv-x="714" 
d="M85 696h94v-419q0 -113 51 -161t128 -48q85 0 131.5 47.5t46.5 161.5v419h93v-414q0 -291 -273 -291q-57 0 -104 14.5t-85.5 46.5t-60 89t-21.5 134v421zM251 771h-64v22q0 98 86 98q34 0 90 -26.5t71 -26.5q32 0 32 43v12h61v-21q0 -56 -21.5 -79.5t-63.5 -23.5
q-31 0 -87 26.5t-75 26.5q-29 0 -29 -34v-17z" />
    <glyph glyph-name="utilde" unicode="&#x169;" horiz-adv-x="557" 
d="M482 507v-359q0 -28 0.5 -82t0.5 -66h-85q-2 13 -4 76q-39 -88 -153 -88q-73 0 -120.5 43.5t-47.5 142.5v333h87v-315q0 -128 105 -128q69 0 99 41.5t30 137.5v264h88zM185 605h-62v23q0 96 81 96q30 0 77 -24.5t63 -24.5q28 0 28 42v10h61v-21q0 -102 -83 -102
q-30 0 -75 25t-64 25q-26 0 -26 -33v-16z" />
    <glyph glyph-name="Umacron" unicode="&#x16a;" horiz-adv-x="714" 
d="M85 696h94v-419q0 -113 51 -161t128 -48q85 0 131.5 47.5t46.5 161.5v419h93v-414q0 -291 -273 -291q-57 0 -104 14.5t-85.5 46.5t-60 89t-21.5 134v421zM217 854h280v-69h-280v69z" />
    <glyph glyph-name="umacron" unicode="&#x16b;" horiz-adv-x="557" 
d="M482 507v-359q0 -28 0.5 -82t0.5 -66h-85q-2 13 -4 76q-39 -88 -153 -88q-73 0 -120.5 43.5t-47.5 142.5v333h87v-315q0 -128 105 -128q69 0 99 41.5t30 137.5v264h88zM139 699h277v-71h-277v71z" />
    <glyph glyph-name="Ubreve" unicode="&#x16c;" horiz-adv-x="714" 
d="M85 696h94v-419q0 -113 51 -161t128 -48q85 0 131.5 47.5t46.5 161.5v419h93v-414q0 -291 -273 -291q-57 0 -104 14.5t-85.5 46.5t-60 89t-21.5 134v421zM202 889h68q6 -30 28.5 -48.5t58.5 -18.5q73 0 88 67h67q-9 -58 -48.5 -94.5t-107.5 -36.5q-72 0 -110.5 38
t-43.5 93z" />
    <glyph glyph-name="ubreve" unicode="&#x16d;" horiz-adv-x="557" 
d="M482 507v-359q0 -28 0.5 -82t0.5 -66h-85q-2 13 -4 76q-39 -88 -153 -88q-73 0 -120.5 43.5t-47.5 142.5v333h87v-315q0 -128 105 -128q69 0 99 41.5t30 137.5v264h88zM133 723h65q16 -69 79 -69q38 0 55.5 18.5t25.5 50.5h64q-8 -60 -45 -98t-100 -38q-69 0 -104.5 39.5
t-39.5 96.5z" />
    <glyph glyph-name="Uring" unicode="&#x16e;" horiz-adv-x="714" 
d="M85 696h94v-419q0 -113 51 -161t128 -48q85 0 131.5 47.5t46.5 161.5v419h93v-414q0 -291 -273 -291q-57 0 -104 14.5t-85.5 46.5t-60 89t-21.5 134v421zM357 737q-48 0 -77.5 27.5t-29.5 69.5q0 41 29 70t78 29q48 0 77 -28t29 -70t-29.5 -70t-76.5 -28zM357 782
q25 0 38.5 15.5t13.5 36.5q0 22 -13.5 38t-38.5 16t-38.5 -15.5t-13.5 -36.5q0 -22 13 -38t39 -16z" />
    <glyph glyph-name="uring" unicode="&#x16f;" horiz-adv-x="557" 
d="M482 507v-359q0 -28 0.5 -82t0.5 -66h-85q-2 13 -4 76q-39 -88 -153 -88q-73 0 -120.5 43.5t-47.5 142.5v333h87v-315q0 -128 105 -128q69 0 99 41.5t30 137.5v264h88zM278 566q-48 0 -77.5 27.5t-29.5 69.5q0 41 29 70t78 29q48 0 77 -28t29 -70t-29.5 -70t-76.5 -28z
M278 611q25 0 38.5 15.5t13.5 36.5q0 22 -13.5 38t-38.5 16t-38.5 -15.5t-13.5 -36.5q0 -22 13 -38t39 -16z" />
    <glyph glyph-name="Uhungarumlaut" unicode="&#x170;" horiz-adv-x="714" 
d="M85 696h94v-419q0 -113 51 -161t128 -48q85 0 131.5 47.5t46.5 161.5v419h93v-414q0 -291 -273 -291q-57 0 -104 14.5t-85.5 46.5t-60 89t-21.5 134v421zM324 901h100l-134 -137h-78zM505 901h99l-134 -137h-78z" />
    <glyph glyph-name="uhungarumlaut" unicode="&#x171;" horiz-adv-x="557" 
d="M482 507v-359q0 -28 0.5 -82t0.5 -66h-85q-2 13 -4 76q-39 -88 -153 -88q-73 0 -120.5 43.5t-47.5 142.5v333h87v-315q0 -128 105 -128q69 0 99 41.5t30 137.5v264h88zM205 580h-73l101 155h92zM387 580h-73l101 155h93z" />
    <glyph glyph-name="Uogonek" unicode="&#x172;" horiz-adv-x="714" 
d="M85 696h94v-419q0 -113 51 -161t128 -48q85 0 131.5 47.5t46.5 161.5v419h93v-414q0 -216 -151 -272q-63 -53 -63 -103q0 -25 15.5 -39t40.5 -14q35 0 57 9v-68q-29 -16 -80 -16q-54 0 -85.5 29.5t-31.5 80.5q0 50 43 102h-18q-57 0 -104 14.5t-85.5 46.5t-60 89
t-21.5 134v421z" />
    <glyph glyph-name="uogonek" unicode="&#x173;" horiz-adv-x="557" 
d="M482 507v-359q0 -28 0.5 -82t0.5 -66h-2q-66 -56 -66 -106q0 -25 15.5 -39t40.5 -14q35 0 57 9v-68q-29 -16 -80 -16q-54 0 -85.5 29.5t-31.5 80.5q0 64 66 128q-1 16 -3 72q-39 -88 -153 -88q-73 0 -120.5 43.5t-47.5 142.5v333h87v-315q0 -128 105 -128q69 0 99 41.5
t30 137.5v264h88z" />
    <glyph glyph-name="Wcircumflex" unicode="&#x174;" horiz-adv-x="936" 
d="M308 0h-99l-187 696h98q20 -83 55.5 -228t58 -238.5t28.5 -128.5h1q10 49 75 284t84 311h90q137 -509 152 -592h1q10 53 40 164.5t68 248t50 179.5h91l-203 -696h-99q-138 524 -148 575h-1q-9 -47 -35 -144t-69 -250.5t-51 -180.5zM424 889h92l130 -131h-93l-84 83
l-89 -83h-92z" />
    <glyph glyph-name="wcircumflex" unicode="&#x175;" horiz-adv-x="767" 
d="M25 507h92q99 -374 108 -426h1q10 50 117 426h86q105 -381 111 -416h1q20 82 112 416h89l-156 -507h-95q-18 68 -45.5 169.5t-43 159.5t-20.5 82h-1q-8 -46 -111 -411h-98zM341 734h83l111 -152h-86l-67 101l-66 -101h-85z" />
    <glyph glyph-name="Ycircumflex" unicode="&#x176;" horiz-adv-x="591" 
d="M338 0h-93v255q0 13 -5 19l-245 422h106q174 -313 196 -354q31 62 199 354h99l-253 -424q-4 -8 -4 -18v-254zM252 889h92l130 -131h-93l-84 83l-89 -83h-92z" />
    <glyph glyph-name="ycircumflex" unicode="&#x177;" horiz-adv-x="481" 
d="M10 507h95q126 -374 141 -429h1q26 93 135 429h88l-182 -530q-38 -112 -77 -149t-116 -37q-25 0 -55 3v76q26 -2 42 -2q47 0 71 23.5t47 88.5zM198 734h83l111 -152h-86l-67 101l-66 -101h-85z" />
    <glyph glyph-name="Ydieresis" unicode="&#x178;" horiz-adv-x="591" 
d="M338 0h-93v255q0 13 -5 19l-245 422h106q174 -313 196 -354q31 62 199 354h99l-253 -424q-4 -8 -4 -18v-254zM236 769h-77v110h77v-110zM431 769h-76v110h76v-110z" />
    <glyph glyph-name="Zacute" unicode="&#x179;" horiz-adv-x="597" 
d="M30 0v71l424 546h-403v79h509v-77l-416 -540h430l-13 -79h-531zM387 901h115l-171 -137h-91z" />
    <glyph glyph-name="zacute" unicode="&#x17a;" horiz-adv-x="451" 
d="M25 0v71l292 362h-277v74h377v-73l-288 -360h302l-14 -74h-392zM292 744h108l-154 -153h-82z" />
    <glyph glyph-name="Zdotaccent" unicode="&#x17b;" horiz-adv-x="597" 
d="M30 0v71l424 546h-403v79h509v-77l-416 -540h430l-13 -79h-531zM343 780h-90v109h90v-109z" />
    <glyph glyph-name="zdotaccent" unicode="&#x17c;" horiz-adv-x="451" 
d="M25 0v71l292 362h-277v74h377v-73l-288 -360h302l-14 -74h-392zM268 625h-86v109h86v-109z" />
    <glyph glyph-name="Zcaron" unicode="&#x17d;" horiz-adv-x="597" 
d="M30 0v71l424 546h-403v79h509v-77l-416 -540h430l-13 -79h-531zM340 767h-89l-132 131h93l84 -83l89 83h92z" />
    <glyph glyph-name="zcaron" unicode="&#x17e;" horiz-adv-x="451" 
d="M25 0v71l292 362h-277v74h377v-73l-288 -360h302l-14 -74h-392zM268 582h-85l-110 152h85l68 -100l66 100h85z" />
    <glyph glyph-name="uni018F" unicode="&#x18f;" horiz-adv-x="716" 
d="M663 358q-1 -164 -82.5 -266t-230.5 -102q-146 0 -224 91.5t-78 242.5q0 16 2 48h517q-2 119 -59 187t-159 68q-82 0 -128 -33.5t-73 -91.5h-90q25 84 99 144t196 60q77 0 137.5 -28.5t97.5 -77.5t56 -111t19 -131zM566 300h-422q-1 -110 56.5 -171.5t152.5 -61.5
q92 0 147 61t66 172z" />
    <glyph glyph-name="florin" unicode="&#x192;" horiz-adv-x="524" 
d="M501 679l-18 -70q-22 13 -55 13q-44 0 -64.5 -36.5t-30.5 -101.5l-12 -74h119v-70h-129l-37 -235q-17 -109 -53.5 -165.5t-114.5 -56.5q-60 0 -92 20l19 71q24 -14 66 -14q39 0 55.5 32.5t30.5 116.5l37 231h-97v70h109l9 58q7 46 17.5 81t30 71.5t53 56.5t78.5 20
q56 0 79 -18z" />
    <glyph glyph-name="Ohorn" unicode="&#x1a0;" horiz-adv-x="751" 
d="M380 706q115 0 195 -64q48 15 48 61q0 30 -11 59h81q8 -24 8 -56q0 -39 -19 -70.5t-56 -46.5q72 -93 72 -237q0 -154 -85 -258t-241 -104q-149 0 -234 101t-85 257q0 155 87 256.5t240 101.5zM376 627q-112 0 -169 -78.5t-57 -197.5t59.5 -200.5t166.5 -81.5
q77 0 129.5 40.5t74.5 101.5t22 139q0 120 -58 198.5t-168 78.5z" />
    <glyph glyph-name="ohorn" unicode="&#x1a1;" horiz-adv-x="550" 
d="M278 519q88 0 149 -52q56 14 56 63q0 30 -11 59h81q8 -24 8 -56q0 -43 -22.5 -75.5t-65.5 -46.5q38 -66 38 -156q0 -115 -63.5 -191t-175.5 -76q-107 0 -170 74t-63 191q0 116 63.5 191t175.5 75zM274 446q-70 0 -107.5 -52t-37.5 -140q0 -85 40 -139t107 -54
q68 0 106.5 52.5t38.5 139.5t-38.5 140t-108.5 53z" />
    <glyph glyph-name="Uhorn" unicode="&#x1af;" horiz-adv-x="714" 
d="M85 696h94v-419q0 -113 51 -161t128 -48q85 0 131.5 47.5t46.5 161.5v419h50q60 12 60 64q0 30 -11 59h81q8 -24 8 -56q0 -45 -24.5 -78t-70.5 -45v-358q0 -291 -273 -291q-57 0 -104 14.5t-85.5 46.5t-60 89t-21.5 134v421z" />
    <glyph glyph-name="uhorn" unicode="&#x1b0;" horiz-adv-x="557" 
d="M394 76q-39 -88 -153 -88q-73 0 -120.5 43.5t-47.5 142.5v333h87v-315q0 -128 105 -128q69 0 99 41.5t30 137.5v264h38v1q70 11 70 66q0 30 -11 59h81q8 -24 8 -56q0 -46 -25.5 -79t-72.5 -45v-305q0 -28 0.5 -82t0.5 -66h-85q-2 13 -4 76z" />
    <glyph glyph-name="uni01CD" unicode="&#x1cd;" horiz-adv-x="660" 
d="M464 209h-277l-75 -209h-92l248 696h113l259 -696h-99zM211 288h230q-105 286 -118 333h-1q-12 -41 -111 -333zM369 758h-89l-132 131h93l84 -83l89 83h92z" />
    <glyph glyph-name="uni01CE" unicode="&#x1ce;" horiz-adv-x="529" 
d="M453 353v-242q0 -76 7 -111h-84q-6 18 -8 66q-43 -78 -157 -78q-84 0 -127.5 45.5t-43.5 109.5q0 165 240 165h86v43q0 99 -109 99q-30 0 -50.5 -6.5t-32 -20t-16.5 -25t-9 -29.5h-85q6 63 51.5 106.5t144.5 43.5q193 0 193 -166zM367 231v16h-82q-78 0 -116.5 -23.5
t-38.5 -75.5q0 -41 26.5 -66t72.5 -25q44 0 73 13.5t42.5 40t18 54t4.5 66.5zM308 582h-85l-110 152h85l68 -100l66 100h85z" />
    <glyph glyph-name="uni01CF" unicode="&#x1cf;" horiz-adv-x="276" 
d="M92 696h92v-696h-92v696zM183 758h-89l-132 131h93l84 -83l89 83h92z" />
    <glyph glyph-name="uni01D0" unicode="&#x1d0;" horiz-adv-x="237" 
d="M75 0v507h88v-507h-88zM162 582h-85l-110 152h85l68 -100l66 100h85z" />
    <glyph glyph-name="uni01D1" unicode="&#x1d1;" horiz-adv-x="751" 
d="M380 706q145 0 231.5 -98.5t86.5 -255.5q0 -154 -85 -258t-241 -104q-149 0 -234 101t-85 257q0 155 87 256.5t240 101.5zM376 627q-112 0 -169 -78.5t-57 -197.5t59.5 -200.5t166.5 -81.5q77 0 129.5 40.5t74.5 101.5t22 139q0 120 -58 198.5t-168 78.5zM418 763h-89
l-132 131h93l84 -83l89 83h92z" />
    <glyph glyph-name="uni01D2" unicode="&#x1d2;" horiz-adv-x="550" 
d="M278 519q106 0 169.5 -72.5t63.5 -191.5q0 -115 -63.5 -191t-175.5 -76q-107 0 -170 74t-63 191q0 116 63.5 191t175.5 75zM274 446q-70 0 -107.5 -52t-37.5 -140q0 -85 40 -139t107 -54q68 0 106.5 52.5t38.5 139.5t-38.5 140t-108.5 53zM317 582h-85l-110 152h85
l68 -100l66 100h85z" />
    <glyph glyph-name="uni01D3" unicode="&#x1d3;" horiz-adv-x="714" 
d="M85 696h94v-419q0 -113 51 -161t128 -48q85 0 131.5 47.5t46.5 161.5v419h93v-414q0 -291 -273 -291q-57 0 -104 14.5t-85.5 46.5t-60 89t-21.5 134v421zM399 764h-89l-132 131h93l84 -83l89 83h92z" />
    <glyph glyph-name="uni01D4" unicode="&#x1d4;" horiz-adv-x="557" 
d="M482 507v-359q0 -28 0.5 -82t0.5 -66h-85q-2 13 -4 76q-39 -88 -153 -88q-73 0 -120.5 43.5t-47.5 142.5v333h87v-315q0 -128 105 -128q69 0 99 41.5t30 137.5v264h88zM321 582h-85l-110 152h85l68 -100l66 100h85z" />
    <glyph glyph-name="uni01D5" unicode="&#x1d5;" horiz-adv-x="714" 
d="M85 696h94v-419q0 -113 51 -161t128 -48q85 0 131.5 47.5t46.5 161.5v419h93v-414q0 -291 -273 -291q-57 0 -104 14.5t-85.5 46.5t-60 89t-21.5 134v421zM292 759h-76v88h76v-88zM488 895h-263v65h263v-65zM498 759h-77v88h77v-88z" />
    <glyph glyph-name="uni01D6" unicode="&#x1d6;" horiz-adv-x="557" 
d="M482 507v-359q0 -28 0.5 -82t0.5 -66h-85q-2 13 -4 76q-39 -88 -153 -88q-73 0 -120.5 43.5t-47.5 142.5v333h87v-315q0 -128 105 -128q69 0 99 41.5t30 137.5v264h88zM221 569h-77v88h77v-88zM409 713h-263v64h263v-64zM412 569h-77v88h77v-88z" />
    <glyph glyph-name="uni01D7" unicode="&#x1d7;" horiz-adv-x="714" 
d="M85 696h94v-419q0 -113 51 -161t128 -48q85 0 131.5 47.5t46.5 161.5v419h93v-414q0 -291 -273 -291q-57 0 -104 14.5t-85.5 46.5t-60 89t-21.5 134v421zM216 843h76v-87h-76v87zM311 875l98 119h110l-127 -119h-81zM498 756h-77v87h77v-87z" />
    <glyph glyph-name="uni01D8" unicode="&#x1d8;" horiz-adv-x="557" 
d="M482 507v-359q0 -28 0.5 -82t0.5 -66h-85q-2 13 -4 76q-39 -88 -153 -88q-73 0 -120.5 43.5t-47.5 142.5v333h87v-315q0 -128 105 -128q69 0 99 41.5t30 137.5v264h88zM144 657h77v-88h-77v88zM309 687h-80l97 121h106zM412 569h-77v88h77v-88z" />
    <glyph glyph-name="uni01D9" unicode="&#x1d9;" horiz-adv-x="714" 
d="M85 696h94v-419q0 -113 51 -161t128 -48q85 0 131.5 47.5t46.5 161.5v419h93v-414q0 -291 -273 -291q-57 0 -104 14.5t-85.5 46.5t-60 89t-21.5 134v421zM397 871h-86l-108 120h83l68 -74l69 74h82zM294 755h-76v87h76v-87zM500 755h-77v87h77v-87z" />
    <glyph glyph-name="uni01DA" unicode="&#x1da;" horiz-adv-x="557" 
d="M482 507v-359q0 -28 0.5 -82t0.5 -66h-85q-2 13 -4 76q-39 -88 -153 -88q-73 0 -120.5 43.5t-47.5 142.5v333h87v-315q0 -128 105 -128q69 0 99 41.5t30 137.5v264h88zM320 683h-83l-107 121h81l68 -76l68 76h80zM221 565h-77v88h77v-88zM412 565h-77v88h77v-88z" />
    <glyph glyph-name="uni01DB" unicode="&#x1db;" horiz-adv-x="714" 
d="M85 696h94v-419q0 -113 51 -161t128 -48q85 0 131.5 47.5t46.5 161.5v419h93v-414q0 -291 -273 -291q-57 0 -104 14.5t-85.5 46.5t-60 89t-21.5 134v421zM216 843h76v-87h-76v87zM402 875h-80l-127 119h106zM498 756h-77v87h77v-87z" />
    <glyph glyph-name="uni01DC" unicode="&#x1dc;" horiz-adv-x="557" 
d="M482 507v-359q0 -28 0.5 -82t0.5 -66h-85q-2 13 -4 76q-39 -88 -153 -88q-73 0 -120.5 43.5t-47.5 142.5v333h87v-315q0 -128 105 -128q69 0 99 41.5t30 137.5v264h88zM144 653h77v-88h-77v88zM124 804h108l95 -121h-79zM412 565h-77v88h77v-88z" />
    <glyph glyph-name="Gcaron" unicode="&#x1e6;" horiz-adv-x="728" 
d="M656 376v-376h-71q-8 20 -9 94q-63 -103 -216 -103q-146 0 -226.5 98t-80.5 252q0 161 85.5 263t238.5 102q119 0 193.5 -58t89.5 -154h-92q-42 135 -193 135q-114 0 -169.5 -79t-55.5 -205q0 -75 21.5 -135.5t73 -101t126.5 -40.5q195 0 195 221v8h-196v79h286zM412 764
h-89l-132 131h93l84 -83l89 83h92z" />
    <glyph glyph-name="gcaron" unicode="&#x1e7;" horiz-adv-x="567" 
d="M493 361v-315q0 -126 -56 -190.5t-177 -64.5q-104 0 -153 45.5t-57 109.5h89q23 -85 125 -85q81 0 112 47t31 142v41q-43 -89 -158 -89q-94 0 -152 69.5t-58 181.5q0 121 62.5 193.5t156.5 72.5q66 0 102.5 -24t46.5 -55q1 30 5 67h82q0 -12 -0.5 -66t-0.5 -80zM130 257
q0 -80 38.5 -130t100.5 -50q77 0 109 48t32 138q0 91 -30.5 136.5t-107.5 45.5q-68 0 -105 -51.5t-37 -136.5zM324 582h-85l-110 152h85l68 -100l66 100h85z" />
    <glyph glyph-name="uni0218" unicode="&#x218;" horiz-adv-x="606" 
d="M41 194h94q29 -129 177 -129q77 0 114 32t37 85q0 55 -36 86.5t-137 55.5q-121 30 -171 74.5t-50 119.5q0 82 59.5 135t171.5 53q115 0 175 -54.5t69 -132.5h-94q-24 112 -153 112q-64 0 -98 -27t-34 -77q0 -48 34 -73t127 -48q72 -17 119.5 -40.5t71.5 -52t33 -57
t9 -65.5q0 -88 -65 -144t-188 -56t-188 57t-77 146zM291 -254h-74q50 106 56 198h89q-3 -51 -24 -108t-47 -90z" />
    <glyph glyph-name="uni0219" unicode="&#x219;" horiz-adv-x="473" 
d="M30 145h88q22 -88 124 -88q103 0 103 78q0 37 -24.5 56.5t-95.5 36.5q-103 25 -139 59t-36 90q0 59 46 100.5t137 41.5t138.5 -43t52.5 -103h-84q-20 78 -110 78q-49 0 -71 -19.5t-22 -47.5q0 -29 23 -46t91 -33q109 -26 147 -64t38 -99q0 -68 -52.5 -111t-144.5 -43
q-94 0 -146.5 42.5t-62.5 114.5zM222 -252h-74q50 106 56 198h89q-3 -51 -24 -108t-47 -90z" />
    <glyph glyph-name="uni021A" unicode="&#x21a;" horiz-adv-x="558" 
d="M232 0v617h-224v79h542v-79h-225v-617h-93zM252 -252h-74q50 106 56 198h89q-3 -51 -24 -108t-47 -90z" />
    <glyph glyph-name="uni021B" unicode="&#x21b;" horiz-adv-x="319" 
d="M10 436v71h88v150h87v-150h112v-71h-112v-297q0 -39 12.5 -57t45.5 -18q25 0 44 4v-66q-24 -9 -76 -9q-59 0 -86 30.5t-27 94.5v318h-88zM151 -252h-74q50 106 56 198h89q-3 -51 -24 -108t-47 -90z" />
    <glyph glyph-name="uni0237" unicode="&#x237;" horiz-adv-x="237" 
d="M75 507h88v-524q0 -107 -31 -149.5t-112 -42.5q-18 0 -34 2v74q8 -1 22 -1q39 0 53 23.5t14 78.5v539z" />
    <glyph glyph-name="uni0251" unicode="&#x251;" horiz-adv-x="574" 
d="M409 507h88v-385q0 -78 5 -123h-80q-4 21 -8 79q-41 -90 -162 -90q-96 0 -154.5 71.5t-58.5 188.5q0 116 62 193.5t165 77.5q62 0 96.5 -21t46.5 -50v59zM130 251q0 -88 39 -137.5t99 -49.5q145 0 145 197q0 182 -137 182q-66 0 -106 -51t-40 -141z" />
    <glyph glyph-name="uni0259" unicode="&#x259;" horiz-adv-x="517" 
d="M32 269h358q-1 79 -38.5 128t-100.5 49q-54 0 -80.5 -21.5t-41.5 -57.5h-89q8 28 22.5 52t39 48t64 38t88.5 14q111 0 167.5 -76t56.5 -184q0 -119 -59.5 -195t-170.5 -76q-59 0 -103 21.5t-67.5 58t-35 76.5t-11.5 83q0 29 1 42zM387 208h-267q1 -66 34 -108.5t95 -42.5
q123 0 138 151z" />
    <glyph glyph-name="uni0261" unicode="&#x261;" horiz-adv-x="567" 
d="M493 361v-315q0 -126 -56 -190.5t-177 -64.5q-104 0 -153 45.5t-57 109.5h89q23 -85 125 -85q81 0 112 47t31 142v41q-43 -89 -158 -89q-94 0 -152 69.5t-58 181.5q0 121 62.5 193.5t156.5 72.5q66 0 102.5 -24t46.5 -55q1 30 5 67h82q0 -12 -0.5 -66t-0.5 -80zM130 257
q0 -80 38.5 -130t100.5 -50q77 0 109 48t32 138q0 91 -30.5 136.5t-107.5 45.5q-68 0 -105 -51.5t-37 -136.5z" />
    <glyph glyph-name="uni02BB" unicode="&#x2bb;" horiz-adv-x="337" 
d="M164 734h73q-42 -128 -46 -264h-91q5 63 23.5 139.5t40.5 124.5z" />
    <glyph glyph-name="uni02BC" unicode="&#x2bc;" horiz-adv-x="337" 
d="M173 470h-73q42 134 46 264h91q-5 -63 -23.5 -139.5t-40.5 -124.5z" />
    <glyph glyph-name="uni02BE" unicode="&#x2be;" horiz-adv-x="312" 
d="M100 614q51 3 51 47q0 40 -51 45v54q48 0 80 -27.5t32 -71.5q0 -45 -32.5 -73t-79.5 -28v54z" />
    <glyph glyph-name="uni02BF" unicode="&#x2bf;" horiz-adv-x="312" 
d="M212 613v-54q-48 0 -80 27.5t-32 71.5q0 45 32.5 73t79.5 28v-54q-50 -3 -50 -47q0 -39 50 -45z" />
    <glyph glyph-name="circumflex" unicode="&#x2c6;" 
d="M158 734h83l111 -152h-86l-67 101l-66 -101h-85z" />
    <glyph glyph-name="caron" unicode="&#x2c7;" 
d="M243 582h-85l-110 152h85l68 -100l66 100h85z" />
    <glyph glyph-name="uni02C8" unicode="&#x2c8;" horiz-adv-x="281" 
d="M181 568h-81v179h81v-179z" />
    <glyph glyph-name="uni02C9" unicode="&#x2c9;" horiz-adv-x="477" 
d="M100 699h277v-71h-277v71z" />
    <glyph glyph-name="uni02CA" unicode="&#x2ca;" horiz-adv-x="420" 
d="M233 744h108l-154 -153h-82z" />
    <glyph glyph-name="uni02CB" unicode="&#x2cb;" horiz-adv-x="420" 
d="M78 744h109l128 -153h-83z" />
    <glyph glyph-name="uni02CC" unicode="&#x2cc;" horiz-adv-x="281" 
d="M181 -232h-81v179h81v-179z" />
    <glyph glyph-name="breve" unicode="&#x2d8;" 
d="M55 723h65q16 -69 79 -69q38 0 55.5 18.5t25.5 50.5h64q-8 -60 -45 -98t-100 -38q-69 0 -104.5 39.5t-39.5 96.5z" />
    <glyph glyph-name="dotaccent" unicode="&#x2d9;" 
d="M243 625h-86v109h86v-109z" />
    <glyph glyph-name="ring" unicode="&#x2da;" 
d="M200 566q-48 0 -77.5 27.5t-29.5 69.5q0 41 29 70t78 29q48 0 77 -28t29 -70t-29.5 -70t-76.5 -28zM200 611q25 0 38.5 15.5t13.5 36.5q0 22 -13.5 38t-38.5 16t-38.5 -15.5t-13.5 -36.5q0 -22 13 -38t39 -16z" />
    <glyph glyph-name="ogonek" unicode="&#x2db;" 
d="M193 15l72 -15q-66 -56 -66 -106q0 -25 15.5 -39t40.5 -14q35 0 57 9v-68q-29 -16 -80 -16q-54 0 -85.5 29.5t-31.5 80.5q0 69 78 139z" />
    <glyph glyph-name="tilde" unicode="&#x2dc;" 
d="M107 605h-62v23q0 96 81 96q30 0 77 -24.5t63 -24.5q28 0 28 42v10h61v-21q0 -102 -83 -102q-30 0 -75 25t-64 25q-26 0 -26 -33v-16z" />
    <glyph glyph-name="hungarumlaut" unicode="&#x2dd;" 
d="M127 580h-73l101 155h92zM309 580h-73l101 155h93z" />
    <glyph glyph-name="uni0300" unicode="&#x300;" horiz-adv-x="0" 
d="M-132 744h109l128 -153h-83z" />
    <glyph glyph-name="uni0301" unicode="&#x301;" horiz-adv-x="0" 
d="M23 744h108l-154 -153h-82z" />
    <glyph glyph-name="uni0302" unicode="&#x302;" horiz-adv-x="0" 
d="M-42 734h83l111 -152h-86l-67 101l-66 -101h-85z" />
    <glyph glyph-name="uni0303" unicode="&#x303;" horiz-adv-x="0" 
d="M-93 605h-62v23q0 96 81 96q30 0 77 -24.5t63 -24.5q28 0 28 42v10h61v-21q0 -102 -83 -102q-30 0 -75 25t-64 25q-26 0 -26 -33v-16z" />
    <glyph glyph-name="uni0304" unicode="&#x304;" horiz-adv-x="0" 
d="M-139 699h277v-71h-277v71z" />
    <glyph glyph-name="uni0306" unicode="&#x306;" horiz-adv-x="0" 
d="M-145 723h65q16 -69 79 -69q38 0 55.5 18.5t25.5 50.5h64q-8 -60 -45 -98t-100 -38q-69 0 -104.5 39.5t-39.5 96.5z" />
    <glyph glyph-name="uni0307" unicode="&#x307;" horiz-adv-x="0" 
d="M43 625h-86v109h86v-109z" />
    <glyph glyph-name="uni0308" unicode="&#x308;" horiz-adv-x="0" 
d="M-53 625h-77v109h77v-109zM129 625h-76v109h76v-109z" />
    <glyph glyph-name="uni0309" unicode="&#x309;" horiz-adv-x="0" 
d="M41 584h-82q59 50 59 85q0 37 -42 37q-31 0 -60 -17l-20 53q43 29 99 29q47 0 74 -25t27 -62q0 -50 -55 -100z" />
    <glyph glyph-name="uni030A" unicode="&#x30a;" horiz-adv-x="0" 
d="M0 566q-48 0 -77.5 27.5t-29.5 69.5q0 41 29 70t78 29q48 0 77 -28t29 -70t-29.5 -70t-76.5 -28zM0 611q25 0 38.5 15.5t13.5 36.5q0 22 -13.5 38t-38.5 16t-38.5 -15.5t-13.5 -36.5q0 -22 13 -38t39 -16z" />
    <glyph glyph-name="uni030B" unicode="&#x30b;" horiz-adv-x="0" 
d="M-110 580h-73l101 155h92zM72 580h-73l101 155h93z" />
    <glyph glyph-name="uni030C" unicode="&#x30c;" horiz-adv-x="0" 
d="M43 582h-85l-110 152h85l68 -100l66 100h85z" />
    <glyph glyph-name="uni031B" unicode="&#x31b;" horiz-adv-x="0" 
d="M-37 471l-28 59q70 11 70 66q0 30 -11 59h81q8 -24 8 -56q0 -51 -31 -86t-89 -42z" />
    <glyph glyph-name="uni0323" unicode="&#x323;" horiz-adv-x="0" 
d="M46 -184h-93v108h93v-108z" />
    <glyph glyph-name="uni0324" unicode="&#x324;" horiz-adv-x="0" 
d="M-53 -187h-77v109h77v-109zM129 -187h-76v109h76v-109z" />
    <glyph glyph-name="uni0326" unicode="&#x326;" horiz-adv-x="0" 
d="M-8 -252h-74q50 106 56 198h89q-3 -51 -24 -108t-47 -90z" />
    <glyph glyph-name="uni0327" unicode="&#x327;" horiz-adv-x="0" 
d="M-15 10l62 -10l-41 -51q97 -16 97 -94q0 -53 -37 -75t-87 -22q-46 0 -72 12v60q25 -11 65 -11q53 0 53 35q0 43 -103 45v28z" />
    <glyph glyph-name="uni0328" unicode="&#x328;" horiz-adv-x="0" 
d="M-28 15l72 -15q-66 -56 -66 -106q0 -25 15.5 -39t40.5 -14q34 0 57 9v-68q-29 -16 -80 -16q-54 0 -85.5 29.5t-31.5 80.5q0 69 78 139z" />
    <glyph glyph-name="uni032E" unicode="&#x32e;" horiz-adv-x="0" 
d="M-145 -61h65q16 -69 79 -69q38 0 55.5 18.5t25.5 50.5h64q-8 -60 -45 -98t-100 -38q-69 0 -104.5 39.5t-39.5 96.5z" />
    <glyph glyph-name="uni0331" unicode="&#x331;" horiz-adv-x="0" 
d="M-139 -98h277v-71h-277v71z" />
    <glyph glyph-name="pi" unicode="&#x3c0;" horiz-adv-x="542" 
d="M369 0l2 435h-204v-435h-87v435q-68 0 -85 -3v69q30 6 162 6h383v-72h-83v-435h-88z" />
    <glyph glyph-name="uni1E0C" unicode="&#x1e0c;" horiz-adv-x="721" 
d="M92 0v696h248q148 0 238 -93t90 -248q0 -156 -90.5 -255.5t-240.5 -99.5h-245zM184 617v-539h146q118 0 179.5 76t61.5 199q0 112 -60.5 188t-180.5 76h-146zM380 -184h-93v108h93v-108z" />
    <glyph glyph-name="uni1E0D" unicode="&#x1e0d;" horiz-adv-x="571" 
d="M409 734h88v-591q0 -94 1 -143h-84q-5 22 -5 72q-40 -84 -159 -84q-97 0 -154 71.5t-57 188.5q0 119 62 195t165 76q61 0 96 -19.5t47 -45.5v280zM130 251q0 -89 38 -139t100 -50q82 0 113.5 52.5t31.5 146.5q0 93 -29 138.5t-109 45.5q-68 0 -106.5 -51t-38.5 -143z
M331 -184h-93v108h93v-108z" />
    <glyph glyph-name="uni1E0E" unicode="&#x1e0e;" horiz-adv-x="721" 
d="M92 0v696h248q148 0 238 -93t90 -248q0 -156 -90.5 -255.5t-240.5 -99.5h-245zM184 617v-539h146q118 0 179.5 76t61.5 199q0 112 -60.5 188t-180.5 76h-146zM195 -98h277v-71h-277v71z" />
    <glyph glyph-name="uni1E0F" unicode="&#x1e0f;" horiz-adv-x="571" 
d="M409 734h88v-591q0 -94 1 -143h-84q-5 22 -5 72q-40 -84 -159 -84q-97 0 -154 71.5t-57 188.5q0 119 62 195t165 76q61 0 96 -19.5t47 -45.5v280zM130 251q0 -89 38 -139t100 -50q82 0 113.5 52.5t31.5 146.5q0 93 -29 138.5t-109 45.5q-68 0 -106.5 -51t-38.5 -143z
M146 -98h277v-71h-277v71z" />
    <glyph glyph-name="uni1E20" unicode="&#x1e20;" horiz-adv-x="728" 
d="M656 376v-376h-71q-8 20 -9 94q-63 -103 -216 -103q-146 0 -226.5 98t-80.5 252q0 161 85.5 263t238.5 102q119 0 193.5 -58t89.5 -154h-92q-42 135 -193 135q-114 0 -169.5 -79t-55.5 -205q0 -75 21.5 -135.5t73 -101t126.5 -40.5q195 0 195 221v8h-196v79h286zM230 857
h280v-69h-280v69z" />
    <glyph glyph-name="uni1E21" unicode="&#x1e21;" horiz-adv-x="567" 
d="M493 361v-315q0 -126 -56 -190.5t-177 -64.5q-104 0 -153 45.5t-57 109.5h89q23 -85 125 -85q81 0 112 47t31 142v41q-43 -89 -158 -89q-94 0 -152 69.5t-58 181.5q0 121 62.5 193.5t156.5 72.5q66 0 102.5 -24t46.5 -55q1 30 5 67h82q0 -12 -0.5 -66t-0.5 -80zM130 257
q0 -80 38.5 -130t100.5 -50q77 0 109 48t32 138q0 91 -30.5 136.5t-107.5 45.5q-68 0 -105 -51.5t-37 -136.5zM144 699h277v-71h-277v71z" />
    <glyph glyph-name="uni1E24" unicode="&#x1e24;" horiz-adv-x="730" 
d="M92 0v696h92v-291h362v291h93v-696h-93v326h-362v-326h-92zM411 -184h-93v108h93v-108z" />
    <glyph glyph-name="uni1E25" unicode="&#x1e25;" horiz-adv-x="566" 
d="M75 734h88v-302q48 87 158 87q71 0 121 -45.5t50 -149.5v-324h-88v309q0 134 -110 134q-131 0 -131 -166v-277h-88v734zM329 -184h-93v108h93v-108z" />
    <glyph glyph-name="uni1E2A" unicode="&#x1e2a;" horiz-adv-x="730" 
d="M92 0v696h92v-291h362v291h93v-696h-93v326h-362v-326h-92zM220 -61h65q16 -69 79 -69q38 0 55.5 18.5t25.5 50.5h64q-8 -60 -45 -98t-100 -38q-69 0 -104.5 39.5t-39.5 96.5z" />
    <glyph glyph-name="uni1E2B" unicode="&#x1e2b;" horiz-adv-x="566" 
d="M75 734h88v-302q48 87 158 87q71 0 121 -45.5t50 -149.5v-324h-88v309q0 134 -110 134q-131 0 -131 -166v-277h-88v734zM138 -61h65q16 -69 79 -69q38 0 55.5 18.5t25.5 50.5h64q-8 -60 -45 -98t-100 -38q-69 0 -104.5 39.5t-39.5 96.5z" />
    <glyph glyph-name="uni1E36" unicode="&#x1e36;" horiz-adv-x="561" 
d="M92 0v696h92v-617h363l-13 -79h-442zM360 -184h-93v108h93v-108z" />
    <glyph glyph-name="uni1E37" unicode="&#x1e37;" horiz-adv-x="237" 
d="M163 0h-88v734h88v-734zM165 -184h-93v108h93v-108z" />
    <glyph glyph-name="uni1E38" unicode="&#x1e38;" horiz-adv-x="561" 
d="M92 0v696h92v-617h363l-13 -79h-442zM360 -184h-93v108h93v-108zM4 844h280v-69h-280v69z" />
    <glyph glyph-name="uni1E39" unicode="&#x1e39;" horiz-adv-x="237" 
d="M163 0h-88v734h88v-734zM-20 868h277v-71h-277v71zM165 -184h-93v108h93v-108z" />
    <glyph glyph-name="uni1E3A" unicode="&#x1e3a;" horiz-adv-x="561" 
d="M92 0v696h92v-617h363l-13 -79h-442zM178 -98h277v-71h-277v71z" />
    <glyph glyph-name="uni1E3B" unicode="&#x1e3b;" horiz-adv-x="237" 
d="M163 0h-88v734h88v-734zM-20 -98h277v-71h-277v71z" />
    <glyph glyph-name="uni1E42" unicode="&#x1e42;" horiz-adv-x="868" 
d="M686 0v296q0 212 5 334h-4q-9 -32 -25.5 -84t-44 -128t-47 -130.5t-56 -153t-49.5 -134.5h-83q-12 37 -51.5 152.5t-64.5 190t-53 161.5t-39 128h-3q8 -130 8 -355v-277h-87v696h137q161 -441 200 -583h1q26 101 213 583h133v-696h-90zM471 -184h-93v108h93v-108z" />
    <glyph glyph-name="uni1E43" unicode="&#x1e43;" horiz-adv-x="846" 
d="M75 0v376q0 90 -1 131h84q4 -30 4 -78q46 90 147 90q53 0 89.5 -24.5t51.5 -66.5q51 91 161 91q69 0 114.5 -45t45.5 -141v-333h-86v323q0 51 -23 85.5t-77 34.5q-60 0 -89.5 -40.5t-29.5 -111.5v-291h-86v320q0 123 -98 123q-59 0 -89.5 -43.5t-30.5 -118.5v-281h-87z
M469 -184h-93v108h93v-108z" />
    <glyph glyph-name="uni1E44" unicode="&#x1e44;" horiz-adv-x="744" 
d="M179 0h-87v696h122q22 -36 119 -193t158.5 -257t78.5 -134h1q-6 76 -6 312v272h87v-696h-115q-312 512 -361 601h-2q5 -79 5 -323v-278zM419 767h-90v109h90v-109z" />
    <glyph glyph-name="uni1E45" unicode="&#x1e45;" horiz-adv-x="566" 
d="M75 0v379q0 89 -1 128h85q4 -20 4 -83q44 95 159 95q76 0 123 -48t47 -145v-326h-88v315q0 128 -107 128q-69 0 -101.5 -47t-32.5 -128v-268h-88zM326 625h-86v109h86v-109z" />
    <glyph glyph-name="uni1E46" unicode="&#x1e46;" horiz-adv-x="744" 
d="M179 0h-87v696h122q22 -36 119 -193t158.5 -257t78.5 -134h1q-6 76 -6 312v272h87v-696h-115q-312 512 -361 601h-2q5 -79 5 -323v-278zM418 -184h-93v108h93v-108z" />
    <glyph glyph-name="uni1E47" unicode="&#x1e47;" horiz-adv-x="566" 
d="M75 0v379q0 89 -1 128h85q4 -20 4 -83q44 95 159 95q76 0 123 -48t47 -145v-326h-88v315q0 128 -107 128q-69 0 -101.5 -47t-32.5 -128v-268h-88zM329 -184h-93v108h93v-108z" />
    <glyph glyph-name="uni1E48" unicode="&#x1e48;" horiz-adv-x="744" 
d="M179 0h-87v696h122q22 -36 119 -193t158.5 -257t78.5 -134h1q-6 76 -6 312v272h87v-696h-115q-312 512 -361 601h-2q5 -79 5 -323v-278zM233 -98h277v-71h-277v71z" />
    <glyph glyph-name="uni1E49" unicode="&#x1e49;" horiz-adv-x="566" 
d="M75 0v379q0 89 -1 128h85q4 -20 4 -83q44 95 159 95q76 0 123 -48t47 -145v-326h-88v315q0 128 -107 128q-69 0 -101.5 -47t-32.5 -128v-268h-88zM144 -98h277v-71h-277v71z" />
    <glyph glyph-name="uni1E5A" unicode="&#x1e5a;" horiz-adv-x="642" 
d="M325 306h-142v-306h-91v696h272q104 0 161.5 -51.5t57.5 -134.5q0 -65 -33 -107.5t-86 -56.5q106 -28 106 -178v-30q0 -114 10 -138h-90q-12 28 -12 150v14q0 78 -31.5 110t-121.5 32zM183 618v-234h151q153 0 153 118q0 56 -36 86t-106 30h-162zM376 -178h-93v108h93
v-108z" />
    <glyph glyph-name="uni1E5B" unicode="&#x1e5b;" horiz-adv-x="352" 
d="M75 0v369q0 41 -0.5 85.5t-0.5 52.5h86q3 -42 3 -103q20 52 64 83t106 32v-87q-170 -5 -170 -186v-246h-88zM166 -184h-93v108h93v-108z" />
    <glyph glyph-name="uni1E5C" unicode="&#x1e5c;" horiz-adv-x="642" 
d="M325 306h-142v-306h-91v696h272q104 0 161.5 -51.5t57.5 -134.5q0 -65 -33 -107.5t-86 -56.5q106 -28 106 -178v-30q0 -114 10 -138h-90q-12 28 -12 150v14q0 78 -31.5 110t-121.5 32zM183 618v-234h151q153 0 153 118q0 56 -36 86t-106 30h-162zM377 -176h-93v108h93
v-108zM179 848h280v-69h-280v69z" />
    <glyph glyph-name="uni1E5D" unicode="&#x1e5d;" horiz-adv-x="352" 
d="M75 0v369q0 41 -0.5 85.5t-0.5 52.5h86q3 -42 3 -103q20 52 64 83t106 32v-87q-170 -5 -170 -186v-246h-88zM62 699h277v-71h-277v71zM167 -184h-93v108h93v-108z" />
    <glyph glyph-name="uni1E5E" unicode="&#x1e5e;" horiz-adv-x="642" 
d="M325 306h-142v-306h-91v696h272q104 0 161.5 -51.5t57.5 -134.5q0 -65 -33 -107.5t-86 -56.5q106 -28 106 -178v-30q0 -114 10 -138h-90q-12 28 -12 150v14q0 78 -31.5 110t-121.5 32zM183 618v-234h151q153 0 153 118q0 56 -36 86t-106 30h-162zM192 -93h277v-71h-277
v71z" />
    <glyph glyph-name="uni1E5F" unicode="&#x1e5f;" horiz-adv-x="352" 
d="M75 0v369q0 41 -0.5 85.5t-0.5 52.5h86q3 -42 3 -103q20 52 64 83t106 32v-87q-170 -5 -170 -186v-246h-88zM-9 -98h277v-71h-277v71z" />
    <glyph glyph-name="uni1E60" unicode="&#x1e60;" horiz-adv-x="606" 
d="M41 194h94q29 -129 177 -129q77 0 114 32t37 85q0 55 -36 86.5t-137 55.5q-121 30 -171 74.5t-50 119.5q0 82 59.5 135t171.5 53q115 0 175 -54.5t69 -132.5h-94q-24 112 -153 112q-64 0 -98 -27t-34 -77q0 -48 34 -73t127 -48q72 -17 119.5 -40.5t71.5 -52t33 -57
t9 -65.5q0 -88 -65 -144t-188 -56t-188 57t-77 146zM348 770h-90v109h90v-109z" />
    <glyph glyph-name="uni1E61" unicode="&#x1e61;" horiz-adv-x="473" 
d="M30 145h88q22 -88 124 -88q103 0 103 78q0 37 -24.5 56.5t-95.5 36.5q-103 25 -139 59t-36 90q0 59 46 100.5t137 41.5t138.5 -43t52.5 -103h-84q-20 78 -110 78q-49 0 -71 -19.5t-22 -47.5q0 -29 23 -46t91 -33q109 -26 147 -64t38 -99q0 -68 -52.5 -111t-144.5 -43
q-94 0 -146.5 42.5t-62.5 114.5zM280 625h-86v109h86v-109z" />
    <glyph glyph-name="uni1E62" unicode="&#x1e62;" horiz-adv-x="606" 
d="M41 194h94q29 -129 177 -129q77 0 114 32t37 85q0 55 -36 86.5t-137 55.5q-121 30 -171 74.5t-50 119.5q0 82 59.5 135t171.5 53q115 0 175 -54.5t69 -132.5h-94q-24 112 -153 112q-64 0 -98 -27t-34 -77q0 -48 34 -73t127 -48q72 -17 119.5 -40.5t71.5 -52t33 -57
t9 -65.5q0 -88 -65 -144t-188 -56t-188 57t-77 146zM349 -184h-93v108h93v-108z" />
    <glyph glyph-name="uni1E63" unicode="&#x1e63;" horiz-adv-x="473" 
d="M30 145h88q22 -88 124 -88q103 0 103 78q0 37 -24.5 56.5t-95.5 36.5q-103 25 -139 59t-36 90q0 59 46 100.5t137 41.5t138.5 -43t52.5 -103h-84q-20 78 -110 78q-49 0 -71 -19.5t-22 -47.5q0 -29 23 -46t91 -33q109 -26 147 -64t38 -99q0 -68 -52.5 -111t-144.5 -43
q-94 0 -146.5 42.5t-62.5 114.5zM283 -184h-93v108h93v-108z" />
    <glyph glyph-name="uni1E6C" unicode="&#x1e6c;" horiz-adv-x="558" 
d="M232 0v617h-224v79h542v-79h-225v-617h-93zM325 -184h-93v108h93v-108z" />
    <glyph glyph-name="uni1E6D" unicode="&#x1e6d;" horiz-adv-x="319" 
d="M10 436v71h88v150h87v-150h112v-71h-112v-297q0 -39 12.5 -57t45.5 -18q25 0 44 4v-66q-24 -9 -76 -9q-59 0 -86 30.5t-27 94.5v318h-88zM225 -184h-93v108h93v-108z" />
    <glyph glyph-name="uni1E6E" unicode="&#x1e6e;" horiz-adv-x="558" 
d="M232 0v617h-224v79h542v-79h-225v-617h-93zM140 -98h277v-71h-277v71z" />
    <glyph glyph-name="uni1E6F" unicode="&#x1e6f;" horiz-adv-x="319" 
d="M10 436v71h88v150h87v-150h112v-71h-112v-297q0 -39 12.5 -57t45.5 -18q25 0 44 4v-66q-24 -9 -76 -9q-59 0 -86 30.5t-27 94.5v318h-88zM35 -98h277v-71h-277v71z" />
    <glyph glyph-name="Wgrave" unicode="&#x1e80;" horiz-adv-x="936" 
d="M308 0h-99l-187 696h98q20 -83 55.5 -228t58 -238.5t28.5 -128.5h1q10 49 75 284t84 311h90q137 -509 152 -592h1q10 53 40 164.5t68 248t50 179.5h91l-203 -696h-99q-138 524 -148 575h-1q-9 -47 -35 -144t-69 -250.5t-51 -180.5zM262 895h116l137 -137h-89z" />
    <glyph glyph-name="wgrave" unicode="&#x1e81;" horiz-adv-x="767" 
d="M25 507h92q99 -374 108 -426h1q10 50 117 426h86q105 -381 111 -416h1q20 82 112 416h89l-156 -507h-95q-18 68 -45.5 169.5t-43 159.5t-20.5 82h-1q-8 -46 -111 -411h-98zM193 744h109l128 -153h-83z" />
    <glyph glyph-name="Wacute" unicode="&#x1e82;" horiz-adv-x="936" 
d="M308 0h-99l-187 696h98q20 -83 55.5 -228t58 -238.5t28.5 -128.5h1q10 49 75 284t84 311h90q137 -509 152 -592h1q10 53 40 164.5t68 248t50 179.5h91l-203 -696h-99q-138 524 -148 575h-1q-9 -47 -35 -144t-69 -250.5t-51 -180.5zM565 894h115l-171 -137h-91z" />
    <glyph glyph-name="wacute" unicode="&#x1e83;" horiz-adv-x="767" 
d="M25 507h92q99 -374 108 -426h1q10 50 117 426h86q105 -381 111 -416h1q20 82 112 416h89l-156 -507h-95q-18 68 -45.5 169.5t-43 159.5t-20.5 82h-1q-8 -46 -111 -411h-98zM467 744h108l-154 -153h-82z" />
    <glyph glyph-name="Wdieresis" unicode="&#x1e84;" horiz-adv-x="936" 
d="M308 0h-99l-187 696h98q20 -83 55.5 -228t58 -238.5t28.5 -128.5h1q10 49 75 284t84 311h90q137 -509 152 -592h1q10 53 40 164.5t68 248t50 179.5h91l-203 -696h-99q-138 524 -148 575h-1q-9 -47 -35 -144t-69 -250.5t-51 -180.5zM408 769h-77v110h77v-110zM603 769h-76
v110h76v-110z" />
    <glyph glyph-name="wdieresis" unicode="&#x1e85;" horiz-adv-x="767" 
d="M25 507h92q99 -374 108 -426h1q10 50 117 426h86q105 -381 111 -416h1q20 82 112 416h89l-156 -507h-95q-18 68 -45.5 169.5t-43 159.5t-20.5 82h-1q-8 -46 -111 -411h-98zM330 625h-77v109h77v-109zM512 625h-76v109h76v-109z" />
    <glyph glyph-name="uni1E8E" unicode="&#x1e8e;" horiz-adv-x="591" 
d="M338 0h-93v255q0 13 -5 19l-245 422h106q174 -313 196 -354q31 62 199 354h99l-253 -424q-4 -8 -4 -18v-254zM340 766h-90v109h90v-109z" />
    <glyph glyph-name="uni1E8F" unicode="&#x1e8f;" horiz-adv-x="481" 
d="M10 507h95q126 -374 141 -429h1q26 93 135 429h88l-182 -530q-38 -112 -77 -149t-116 -37q-25 0 -55 3v76q26 -2 42 -2q47 0 71 23.5t47 88.5zM283 625h-86v109h86v-109z" />
    <glyph glyph-name="uni1E92" unicode="&#x1e92;" horiz-adv-x="597" 
d="M30 0v71l424 546h-403v79h509v-77l-416 -540h430l-13 -79h-531zM344 -184h-93v108h93v-108z" />
    <glyph glyph-name="uni1E93" unicode="&#x1e93;" horiz-adv-x="451" 
d="M25 0v71l292 362h-277v74h377v-73l-288 -360h302l-14 -74h-392zM271 -184h-93v108h93v-108z" />
    <glyph glyph-name="uni1E97" unicode="&#x1e97;" horiz-adv-x="319" 
d="M10 436v71h88v150h87v-150h112v-71h-112v-297q0 -39 12.5 -57t45.5 -18q25 0 44 4v-66q-24 -9 -76 -9q-59 0 -86 30.5t-27 94.5v318h-88zM90 706h-77v109h77v-109zM272 706h-76v109h76v-109z" />
    <glyph glyph-name="uni1E9E" unicode="&#x1e9e;" horiz-adv-x="646" 
d="M184 486v-486h-92v510q0 100 63 148t177 48q68 0 119 -16.5t77.5 -44t39 -56.5t12.5 -59q0 -19 -2 -31l-169 -105v-4l73 -43q77 -46 106.5 -88t29.5 -95q0 -79 -53.5 -126.5t-152.5 -47.5q-106 0 -164 54v92q31 -34 75.5 -53.5t88.5 -19.5q59 0 88 26.5t29 66.5
q0 36 -21 61t-81 60l-106 62q-25 15 -25 40.5t26 42.5l161 102q0 41 -33.5 75.5t-115.5 34.5q-75 0 -112.5 -31t-37.5 -117z" />
    <glyph glyph-name="uni1EA0" unicode="&#x1ea0;" horiz-adv-x="660" 
d="M464 209h-277l-75 -209h-92l248 696h113l259 -696h-99zM211 288h230q-105 286 -118 333h-1q-12 -41 -111 -333zM376 -184h-93v108h93v-108z" />
    <glyph glyph-name="uni1EA1" unicode="&#x1ea1;" horiz-adv-x="529" 
d="M453 353v-242q0 -76 7 -111h-84q-6 18 -8 66q-43 -78 -157 -78q-84 0 -127.5 45.5t-43.5 109.5q0 165 240 165h86v43q0 99 -109 99q-30 0 -50.5 -6.5t-32 -20t-16.5 -25t-9 -29.5h-85q6 63 51.5 106.5t144.5 43.5q193 0 193 -166zM367 231v16h-82q-78 0 -116.5 -23.5
t-38.5 -75.5q0 -41 26.5 -66t72.5 -25q44 0 73 13.5t42.5 40t18 54t4.5 66.5zM311 -184h-93v108h93v-108z" />
    <glyph glyph-name="uni1EA2" unicode="&#x1ea2;" horiz-adv-x="660" 
d="M464 209h-277l-75 -209h-92l248 696h113l259 -696h-99zM211 288h230q-105 286 -118 333h-1q-12 -41 -111 -333zM368 757h-82q59 50 59 85q0 37 -42 37q-31 0 -60 -17l-20 53q43 29 99 29q47 0 74 -25t27 -62q0 -50 -55 -100z" />
    <glyph glyph-name="uni1EA3" unicode="&#x1ea3;" horiz-adv-x="529" 
d="M453 353v-242q0 -76 7 -111h-84q-6 18 -8 66q-43 -78 -157 -78q-84 0 -127.5 45.5t-43.5 109.5q0 165 240 165h86v43q0 99 -109 99q-30 0 -50.5 -6.5t-32 -20t-16.5 -25t-9 -29.5h-85q6 63 51.5 106.5t144.5 43.5q193 0 193 -166zM367 231v16h-82q-78 0 -116.5 -23.5
t-38.5 -75.5q0 -41 26.5 -66t72.5 -25q44 0 73 13.5t42.5 40t18 54t4.5 66.5zM306 584h-82q59 50 59 85q0 37 -42 37q-31 0 -60 -17l-20 53q43 29 99 29q47 0 74 -25t27 -62q0 -50 -55 -100z" />
    <glyph glyph-name="uni1EA4" unicode="&#x1ea4;" horiz-adv-x="660" 
d="M464 209h-277l-75 -209h-92l248 696h113l259 -696h-99zM211 288h230q-105 286 -118 333h-1q-12 -41 -111 -333zM282 879h91l133 -121h-99l-78 70l-77 -70h-97zM552 973h105l-129 -116h-80z" />
    <glyph glyph-name="uni1EA5" unicode="&#x1ea5;" horiz-adv-x="529" 
d="M453 353v-242q0 -76 7 -111h-84q-6 18 -8 66q-43 -78 -157 -78q-84 0 -127.5 45.5t-43.5 109.5q0 165 240 165h86v43q0 99 -109 99q-30 0 -50.5 -6.5t-32 -20t-16.5 -25t-9 -29.5h-85q6 63 51.5 106.5t144.5 43.5q193 0 193 -166zM367 231v16h-82q-78 0 -116.5 -23.5
t-38.5 -75.5q0 -41 26.5 -66t72.5 -25q44 0 73 13.5t42.5 40t18 54t4.5 66.5zM219 702h91l106 -133h-83l-69 87l-68 -87h-82zM483 814h95l-132 -131h-72z" />
    <glyph glyph-name="uni1EA6" unicode="&#x1ea6;" horiz-adv-x="660" 
d="M464 209h-277l-75 -209h-92l248 696h113l259 -696h-99zM211 288h230q-105 286 -118 333h-1q-12 -41 -111 -333zM282 879h91l133 -121h-99l-78 70l-77 -70h-97zM392 960h110l103 -112h-77z" />
    <glyph glyph-name="uni1EA7" unicode="&#x1ea7;" horiz-adv-x="529" 
d="M453 353v-242q0 -76 7 -111h-84q-6 18 -8 66q-43 -78 -157 -78q-84 0 -127.5 45.5t-43.5 109.5q0 165 240 165h86v43q0 99 -109 99q-30 0 -50.5 -6.5t-32 -20t-16.5 -25t-9 -29.5h-85q6 63 51.5 106.5t144.5 43.5q193 0 193 -166zM367 231v16h-82q-78 0 -116.5 -23.5
t-38.5 -75.5q0 -41 26.5 -66t72.5 -25q44 0 73 13.5t42.5 40t18 54t4.5 66.5zM219 702h91l106 -133h-83l-69 87l-68 -87h-82zM319 807h97l103 -134h-73z" />
    <glyph glyph-name="uni1EA8" unicode="&#x1ea8;" horiz-adv-x="660" 
d="M464 209h-277l-75 -209h-92l248 696h113l259 -696h-99zM211 288h230q-105 286 -118 333h-1q-12 -41 -111 -333zM539 854h-75q55 41 55 76q0 31 -39 31q-28 0 -57 -18l-20 47q41 31 93 31q43 0 67 -22.5t24 -57.5q0 -52 -48 -87zM282 879h91l133 -121h-99l-78 71l-77 -71
h-97z" />
    <glyph glyph-name="uni1EA9" unicode="&#x1ea9;" horiz-adv-x="529" 
d="M453 353v-242q0 -76 7 -111h-84q-6 18 -8 66q-43 -78 -157 -78q-84 0 -127.5 45.5t-43.5 109.5q0 165 240 165h86v43q0 99 -109 99q-30 0 -50.5 -6.5t-32 -20t-16.5 -25t-9 -29.5h-85q6 63 51.5 106.5t144.5 43.5q193 0 193 -166zM367 231v16h-82q-78 0 -116.5 -23.5
t-38.5 -75.5q0 -41 26.5 -66t72.5 -25q44 0 73 13.5t42.5 40t18 54t4.5 66.5zM463 673h-74q56 43 56 76q0 30 -36 30q-33 0 -55 -19l-20 45q37 31 90 31q43 0 65 -20t22 -56q0 -50 -48 -87zM219 702h91l106 -133h-83l-69 87l-68 -87h-82z" />
    <glyph glyph-name="uni1EAA" unicode="&#x1eaa;" horiz-adv-x="660" 
d="M464 209h-277l-75 -209h-92l248 696h113l259 -696h-99zM211 288h230q-105 286 -118 333h-1q-12 -41 -111 -333zM227 882h-54v11q0 84 75 84q31 0 85 -17t72 -17q29 0 29 26v7h53v-12q0 -82 -75 -82q-26 0 -82.5 18t-75.5 18q-27 0 -27 -29v-7zM281 845h97l124 -96h-96
l-78 55l-75 -55h-96z" />
    <glyph glyph-name="uni1EAB" unicode="&#x1eab;" horiz-adv-x="529" 
d="M453 353v-242q0 -76 7 -111h-84q-6 18 -8 66q-43 -78 -157 -78q-84 0 -127.5 45.5t-43.5 109.5q0 165 240 165h86v43q0 99 -109 99q-30 0 -50.5 -6.5t-32 -20t-16.5 -25t-9 -29.5h-85q6 63 51.5 106.5t144.5 43.5q193 0 193 -166zM367 231v16h-82q-78 0 -116.5 -23.5
t-38.5 -75.5q0 -41 26.5 -66t72.5 -25q44 0 73 13.5t42.5 40t18 54t4.5 66.5zM179 715h-54v10q0 85 72 85q30 0 71 -18t54 -18q27 0 27 27v8h53v-12q0 -82 -75 -82q-25 0 -65.5 18.5t-55.5 18.5q-27 0 -27 -31v-6zM215 672h94l111 -103h-90l-69 62l-66 -62h-88z" />
    <glyph glyph-name="uni1EAC" unicode="&#x1eac;" horiz-adv-x="660" 
d="M464 209h-277l-75 -209h-92l248 696h113l259 -696h-99zM211 288h230q-105 286 -118 333h-1q-12 -41 -111 -333zM376 -184h-93v108h93v-108zM280 883h92l130 -131h-93l-84 83l-89 -83h-92z" />
    <glyph glyph-name="uni1EAD" unicode="&#x1ead;" horiz-adv-x="529" 
d="M453 353v-242q0 -76 7 -111h-84q-6 18 -8 66q-43 -78 -157 -78q-84 0 -127.5 45.5t-43.5 109.5q0 165 240 165h86v43q0 99 -109 99q-30 0 -50.5 -6.5t-32 -20t-16.5 -25t-9 -29.5h-85q6 63 51.5 106.5t144.5 43.5q193 0 193 -166zM367 231v16h-82q-78 0 -116.5 -23.5
t-38.5 -75.5q0 -41 26.5 -66t72.5 -25q44 0 73 13.5t42.5 40t18 54t4.5 66.5zM311 -184h-93v108h93v-108zM223 734h83l111 -152h-86l-67 101l-66 -101h-85z" />
    <glyph glyph-name="uni1EAE" unicode="&#x1eae;" horiz-adv-x="660" 
d="M464 209h-277l-75 -209h-92l248 696h113l259 -696h-99zM211 288h230q-105 286 -118 333h-1q-12 -41 -111 -333zM166 865h71q23 -53 89 -53q68 0 92 53h70q-31 -116 -162 -117q-76 0 -113.5 36.5t-46.5 80.5zM381 993h112l-131 -105h-81z" />
    <glyph glyph-name="uni1EAF" unicode="&#x1eaf;" horiz-adv-x="529" 
d="M453 353v-242q0 -76 7 -111h-84q-6 18 -8 66q-43 -78 -157 -78q-84 0 -127.5 45.5t-43.5 109.5q0 165 240 165h86v43q0 99 -109 99q-30 0 -50.5 -6.5t-32 -20t-16.5 -25t-9 -29.5h-85q6 63 51.5 106.5t144.5 43.5q193 0 193 -166zM367 231v16h-82q-78 0 -116.5 -23.5
t-38.5 -75.5q0 -41 26.5 -66t72.5 -25q44 0 73 13.5t42.5 40t18 54t4.5 66.5zM115 688h66q21 -56 82 -56q63 0 83 56h64q-10 -54 -47 -86t-101 -32q-65 0 -101.5 34.5t-45.5 83.5zM318 831h94l-117 -118h-77z" />
    <glyph glyph-name="uni1EB0" unicode="&#x1eb0;" horiz-adv-x="660" 
d="M464 209h-277l-75 -209h-92l248 696h113l259 -696h-99zM211 288h230q-105 286 -118 333h-1q-12 -41 -111 -333zM166 865h71q23 -53 89 -53q68 0 92 53h70q-31 -117 -162 -117q-75 0 -113 36.5t-47 80.5zM170 993h111l99 -105h-83z" />
    <glyph glyph-name="uni1EB1" unicode="&#x1eb1;" horiz-adv-x="529" 
d="M453 353v-242q0 -76 7 -111h-84q-6 18 -8 66q-43 -78 -157 -78q-84 0 -127.5 45.5t-43.5 109.5q0 165 240 165h86v43q0 99 -109 99q-30 0 -50.5 -6.5t-32 -20t-16.5 -25t-9 -29.5h-85q6 63 51.5 106.5t144.5 43.5q193 0 193 -166zM367 231v16h-82q-78 0 -116.5 -23.5
t-38.5 -75.5q0 -41 26.5 -66t72.5 -25q44 0 73 13.5t42.5 40t18 54t4.5 66.5zM116 690h66q21 -56 82 -56q63 0 83 56h64q-10 -54 -47 -86t-101 -32q-65 0 -101.5 34.5t-45.5 83.5zM113 833h99l99 -118h-77z" />
    <glyph glyph-name="uni1EB2" unicode="&#x1eb2;" horiz-adv-x="660" 
d="M464 209h-277l-75 -209h-92l248 696h113l259 -696h-99zM211 288h230q-105 286 -118 333h-1q-12 -41 -111 -333zM359 880h-74q55 43 55 74q0 29 -37 29q-30 0 -57 -18l-21 45q40 32 94 32q42 0 65 -21.5t23 -55.5q0 -47 -48 -85zM166 865h70q24 -53 91 -53q65 0 92 53h69
q-36 -117 -162 -117q-40 0 -71 12t-48.5 31.5t-27 37.5t-13.5 36z" />
    <glyph glyph-name="uni1EB3" unicode="&#x1eb3;" horiz-adv-x="529" 
d="M453 353v-242q0 -76 7 -111h-84q-6 18 -8 66q-43 -78 -157 -78q-84 0 -127.5 45.5t-43.5 109.5q0 165 240 165h86v43q0 99 -109 99q-30 0 -50.5 -6.5t-32 -20t-16.5 -25t-9 -29.5h-85q6 63 51.5 106.5t144.5 43.5q193 0 193 -166zM367 231v16h-82q-78 0 -116.5 -23.5
t-38.5 -75.5q0 -41 26.5 -66t72.5 -25q44 0 73 13.5t42.5 40t18 54t4.5 66.5zM291 709h-70q60 45 60 75q0 31 -36 31q-31 0 -56 -20l-19 44q39 33 90 33q43 0 64.5 -20.5t21.5 -56.5q0 -51 -55 -86zM117 690h66q21 -56 82 -56q63 0 83 56h64q-10 -54 -47 -86t-101 -32
q-65 0 -101.5 34.5t-45.5 83.5z" />
    <glyph glyph-name="uni1EB4" unicode="&#x1eb4;" horiz-adv-x="660" 
d="M464 209h-277l-75 -209h-92l248 696h113l259 -696h-99zM211 288h230q-105 286 -118 333h-1q-12 -41 -111 -333zM224 890h-54v10q0 85 75 85q31 0 85 -17.5t72 -17.5q29 0 29 26v7h53v-11q0 -83 -75 -83q-26 0 -82.5 18t-75.5 18q-27 0 -27 -29v-6zM168 846h70
q23 -43 88 -43q69 0 89 43h69q-32 -101 -159 -101q-71 0 -109 30.5t-48 70.5z" />
    <glyph glyph-name="uni1EB5" unicode="&#x1eb5;" horiz-adv-x="529" 
d="M453 353v-242q0 -76 7 -111h-84q-6 18 -8 66q-43 -78 -157 -78q-84 0 -127.5 45.5t-43.5 109.5q0 165 240 165h86v43q0 99 -109 99q-30 0 -50.5 -6.5t-32 -20t-16.5 -25t-9 -29.5h-85q6 63 51.5 106.5t144.5 43.5q193 0 193 -166zM367 231v16h-82q-78 0 -116.5 -23.5
t-38.5 -75.5q0 -41 26.5 -66t72.5 -25q44 0 73 13.5t42.5 40t18 54t4.5 66.5zM181 729h-54v11q0 84 72 84q31 0 71 -17t52 -17q29 0 29 26v7h53v-12q0 -82 -75 -82q-25 0 -65.5 18t-55.5 18q-27 0 -27 -29v-7zM126 682h63q23 -49 76 -49q57 0 77 49h63q-9 -49 -45 -79.5
t-96 -30.5q-61 0 -96 33t-42 77z" />
    <glyph glyph-name="uni1EB6" unicode="&#x1eb6;" horiz-adv-x="660" 
d="M464 209h-277l-75 -209h-92l248 696h113l259 -696h-99zM211 288h230q-105 286 -118 333h-1q-12 -41 -111 -333zM376 -184h-93v108h93v-108zM171 884h68q6 -30 28.5 -48.5t58.5 -18.5q73 0 88 67h67q-9 -58 -48.5 -94.5t-107.5 -36.5q-72 0 -110.5 38t-43.5 93z" />
    <glyph glyph-name="uni1EB7" unicode="&#x1eb7;" horiz-adv-x="529" 
d="M453 353v-242q0 -76 7 -111h-84q-6 18 -8 66q-43 -78 -157 -78q-84 0 -127.5 45.5t-43.5 109.5q0 165 240 165h86v43q0 99 -109 99q-30 0 -50.5 -6.5t-32 -20t-16.5 -25t-9 -29.5h-85q6 63 51.5 106.5t144.5 43.5q193 0 193 -166zM367 231v16h-82q-78 0 -116.5 -23.5
t-38.5 -75.5q0 -41 26.5 -66t72.5 -25q44 0 73 13.5t42.5 40t18 54t4.5 66.5zM120 723h65q16 -69 79 -69q38 0 55.5 18.5t25.5 50.5h64q-8 -60 -45 -98t-100 -38q-69 0 -104.5 39.5t-39.5 96.5zM316 -184h-93v108h93v-108z" />
    <glyph glyph-name="uni1EB8" unicode="&#x1eb8;" horiz-adv-x="597" 
d="M528 404v-79h-346v-246h380l-12 -79h-458v696h453v-79h-363v-213h346zM371 -184h-93v108h93v-108z" />
    <glyph glyph-name="uni1EB9" unicode="&#x1eb9;" horiz-adv-x="523" 
d="M485 238h-358q1 -79 38.5 -128t100.5 -49q54 0 80.5 21.5t41.5 57.5h89q-8 -28 -22.5 -52t-39 -48t-64 -38t-88.5 -14q-111 0 -167.5 76t-56.5 184q0 119 59.5 195t170.5 76q59 0 103 -21.5t67.5 -58t35 -76.5t11.5 -83q0 -29 -1 -42zM130 299h267q-1 66 -34 108.5
t-95 42.5q-123 0 -138 -151zM318 -184h-93v108h93v-108z" />
    <glyph glyph-name="uni1EBA" unicode="&#x1eba;" horiz-adv-x="597" 
d="M528 404v-79h-346v-246h380l-12 -79h-458v696h453v-79h-363v-213h346zM362 759h-82q59 50 59 85q0 37 -42 37q-31 0 -60 -17l-20 53q43 29 99 29q47 0 74 -25t27 -62q0 -50 -55 -100z" />
    <glyph glyph-name="uni1EBB" unicode="&#x1ebb;" horiz-adv-x="523" 
d="M485 238h-358q1 -79 38.5 -128t100.5 -49q54 0 80.5 21.5t41.5 57.5h89q-8 -28 -22.5 -52t-39 -48t-64 -38t-88.5 -14q-111 0 -167.5 76t-56.5 184q0 119 59.5 195t170.5 76q59 0 103 -21.5t67.5 -58t35 -76.5t11.5 -83q0 -29 -1 -42zM130 299h267q-1 66 -34 108.5
t-95 42.5q-123 0 -138 -151zM310 578h-82q59 50 59 85q0 37 -42 37q-31 0 -60 -17l-20 53q43 29 99 29q47 0 74 -25t27 -62q0 -50 -55 -100z" />
    <glyph glyph-name="uni1EBC" unicode="&#x1ebc;" horiz-adv-x="597" 
d="M528 404v-79h-346v-246h380l-12 -79h-458v696h453v-79h-363v-213h346zM212 776h-64v22q0 98 86 98q34 0 90 -26.5t71 -26.5q32 0 32 43v12h61v-21q0 -56 -21.5 -79.5t-63.5 -23.5q-31 0 -87 26.5t-75 26.5q-29 0 -29 -34v-17z" />
    <glyph glyph-name="uni1EBD" unicode="&#x1ebd;" horiz-adv-x="523" 
d="M485 238h-358q1 -79 38.5 -128t100.5 -49q54 0 80.5 21.5t41.5 57.5h89q-8 -28 -22.5 -52t-39 -48t-64 -38t-88.5 -14q-111 0 -167.5 76t-56.5 184q0 119 59.5 195t170.5 76q59 0 103 -21.5t67.5 -58t35 -76.5t11.5 -83q0 -29 -1 -42zM130 299h267q-1 66 -34 108.5
t-95 42.5q-123 0 -138 -151zM169 605h-62v23q0 96 81 96q30 0 77 -24.5t63 -24.5q28 0 28 42v10h61v-21q0 -102 -83 -102q-30 0 -75 25t-64 25q-26 0 -26 -33v-16z" />
    <glyph glyph-name="uni1EBE" unicode="&#x1ebe;" horiz-adv-x="597" 
d="M528 404v-79h-346v-246h380l-12 -79h-458v696h453v-79h-363v-213h346zM269 880h91l133 -121h-99l-78 70l-77 -70h-97zM539 974h105l-129 -116h-80z" />
    <glyph glyph-name="uni1EBF" unicode="&#x1ebf;" horiz-adv-x="523" 
d="M485 238h-358q1 -79 38.5 -128t100.5 -49q54 0 80.5 21.5t41.5 57.5h89q-8 -28 -22.5 -52t-39 -48t-64 -38t-88.5 -14q-111 0 -167.5 76t-56.5 184q0 119 59.5 195t170.5 76q59 0 103 -21.5t67.5 -58t35 -76.5t11.5 -83q0 -29 -1 -42zM130 299h267q-1 66 -34 108.5
t-95 42.5q-123 0 -138 -151zM220 702h91l106 -133h-83l-69 87l-68 -87h-82zM484 814h95l-132 -131h-72z" />
    <glyph glyph-name="uni1EC0" unicode="&#x1ec0;" horiz-adv-x="597" 
d="M528 404v-79h-346v-246h380l-12 -79h-458v696h453v-79h-363v-213h346zM269 883h91l133 -121h-99l-78 70l-77 -70h-97zM379 964h110l103 -112h-77z" />
    <glyph glyph-name="uni1EC1" unicode="&#x1ec1;" horiz-adv-x="523" 
d="M485 238h-358q1 -79 38.5 -128t100.5 -49q54 0 80.5 21.5t41.5 57.5h89q-8 -28 -22.5 -52t-39 -48t-64 -38t-88.5 -14q-111 0 -167.5 76t-56.5 184q0 119 59.5 195t170.5 76q59 0 103 -21.5t67.5 -58t35 -76.5t11.5 -83q0 -29 -1 -42zM130 299h267q-1 66 -34 108.5
t-95 42.5q-123 0 -138 -151zM220 702h91l106 -133h-83l-69 87l-68 -87h-82zM320 807h97l103 -134h-73z" />
    <glyph glyph-name="uni1EC2" unicode="&#x1ec2;" horiz-adv-x="597" 
d="M528 404v-79h-346v-246h380l-12 -79h-458v696h453v-79h-363v-213h346zM525 859h-75q55 41 55 76q0 31 -39 31q-28 0 -57 -18l-20 47q41 31 93 31q43 0 67 -22.5t24 -57.5q0 -52 -48 -87zM268 884h91l133 -121h-99l-78 71l-77 -71h-97z" />
    <glyph glyph-name="uni1EC3" unicode="&#x1ec3;" horiz-adv-x="523" 
d="M485 238h-358q1 -79 38.5 -128t100.5 -49q54 0 80.5 21.5t41.5 57.5h89q-8 -28 -22.5 -52t-39 -48t-64 -38t-88.5 -14q-111 0 -167.5 76t-56.5 184q0 119 59.5 195t170.5 76q59 0 103 -21.5t67.5 -58t35 -76.5t11.5 -83q0 -29 -1 -42zM130 299h267q-1 66 -34 108.5
t-95 42.5q-123 0 -138 -151zM460 673h-74q56 43 56 76q0 30 -36 30q-33 0 -55 -19l-20 45q37 31 90 31q43 0 65 -20t22 -56q0 -50 -48 -87zM216 702h91l106 -133h-83l-69 87l-68 -87h-82z" />
    <glyph glyph-name="uni1EC4" unicode="&#x1ec4;" horiz-adv-x="597" 
d="M528 404v-79h-346v-246h380l-12 -79h-458v696h453v-79h-363v-213h346zM215 891h-54v11q0 84 75 84q31 0 85 -17t72 -17q29 0 29 26v7h53v-12q0 -82 -75 -82q-26 0 -82.5 18t-75.5 18q-27 0 -27 -29v-7zM269 854h97l124 -96h-96l-78 55l-75 -55h-96z" />
    <glyph glyph-name="uni1EC5" unicode="&#x1ec5;" horiz-adv-x="523" 
d="M485 238h-358q1 -79 38.5 -128t100.5 -49q54 0 80.5 21.5t41.5 57.5h89q-8 -28 -22.5 -52t-39 -48t-64 -38t-88.5 -14q-111 0 -167.5 76t-56.5 184q0 119 59.5 195t170.5 76q59 0 103 -21.5t67.5 -58t35 -76.5t11.5 -83q0 -29 -1 -42zM130 299h267q-1 66 -34 108.5
t-95 42.5q-123 0 -138 -151zM178 712h-54v10q0 85 72 85q30 0 71 -18t54 -18q27 0 27 27v8h53v-12q0 -82 -75 -82q-25 0 -65.5 18.5t-55.5 18.5q-27 0 -27 -31v-6zM214 669h94l111 -103h-90l-69 62l-66 -62h-88z" />
    <glyph glyph-name="uni1EC6" unicode="&#x1ec6;" horiz-adv-x="597" 
d="M528 404v-79h-346v-246h380l-12 -79h-458v696h453v-79h-363v-213h346zM368 -184h-93v108h93v-108zM272 894h92l130 -131h-93l-84 83l-89 -83h-92z" />
    <glyph glyph-name="uni1EC7" unicode="&#x1ec7;" horiz-adv-x="523" 
d="M485 238h-358q1 -79 38.5 -128t100.5 -49q54 0 80.5 21.5t41.5 57.5h89q-8 -28 -22.5 -52t-39 -48t-64 -38t-88.5 -14q-111 0 -167.5 76t-56.5 184q0 119 59.5 195t170.5 76q59 0 103 -21.5t67.5 -58t35 -76.5t11.5 -83q0 -29 -1 -42zM130 299h267q-1 66 -34 108.5
t-95 42.5q-123 0 -138 -151zM318 -184h-93v108h93v-108zM230 734h83l111 -152h-86l-67 101l-66 -101h-85z" />
    <glyph glyph-name="uni1EC8" unicode="&#x1ec8;" horiz-adv-x="276" 
d="M92 696h92v-696h-92v696zM179 757h-82q59 50 59 85q0 37 -42 37q-31 0 -60 -17l-20 53q43 29 99 29q47 0 74 -25t27 -62q0 -50 -55 -100z" />
    <glyph glyph-name="uni1EC9" unicode="&#x1ec9;" horiz-adv-x="237" 
d="M75 0v507h88v-507h-88zM160 584h-82q59 50 59 85q0 37 -42 37q-31 0 -60 -17l-20 53q43 29 99 29q47 0 74 -25t27 -62q0 -50 -55 -100z" />
    <glyph glyph-name="uni1ECA" unicode="&#x1eca;" horiz-adv-x="276" 
d="M92 696h92v-696h-92v696zM184 -184h-93v108h93v-108z" />
    <glyph glyph-name="uni1ECB" unicode="&#x1ecb;" horiz-adv-x="237" 
d="M75 0v507h88v-507h-88zM163 625h-88v109h88v-109zM165 -184h-93v108h93v-108z" />
    <glyph glyph-name="uni1ECC" unicode="&#x1ecc;" horiz-adv-x="751" 
d="M380 706q145 0 231.5 -98.5t86.5 -255.5q0 -154 -85 -258t-241 -104q-149 0 -234 101t-85 257q0 155 87 256.5t240 101.5zM376 627q-112 0 -169 -78.5t-57 -197.5t59.5 -200.5t166.5 -81.5q77 0 129.5 40.5t74.5 101.5t22 139q0 120 -58 198.5t-168 78.5zM422 -188h-93
v108h93v-108z" />
    <glyph glyph-name="uni1ECD" unicode="&#x1ecd;" horiz-adv-x="550" 
d="M278 519q106 0 169.5 -72.5t63.5 -191.5q0 -115 -63.5 -191t-175.5 -76q-107 0 -170 74t-63 191q0 116 63.5 191t175.5 75zM274 446q-70 0 -107.5 -52t-37.5 -140q0 -85 40 -139t107 -54q68 0 106.5 52.5t38.5 139.5t-38.5 140t-108.5 53zM320 -186h-93v108h93v-108z" />
    <glyph glyph-name="uni1ECE" unicode="&#x1ece;" horiz-adv-x="751" 
d="M380 706q145 0 231.5 -98.5t86.5 -255.5q0 -154 -85 -258t-241 -104q-149 0 -234 101t-85 257q0 155 87 256.5t240 101.5zM376 627q-112 0 -169 -78.5t-57 -197.5t59.5 -200.5t166.5 -81.5q77 0 129.5 40.5t74.5 101.5t22 139q0 120 -58 198.5t-168 78.5zM417 757h-82
q59 50 59 85q0 37 -42 37q-31 0 -60 -17l-20 53q43 29 99 29q47 0 74 -25t27 -62q0 -50 -55 -100z" />
    <glyph glyph-name="uni1ECF" unicode="&#x1ecf;" horiz-adv-x="550" 
d="M278 519q106 0 169.5 -72.5t63.5 -191.5q0 -115 -63.5 -191t-175.5 -76q-107 0 -170 74t-63 191q0 116 63.5 191t175.5 75zM274 446q-70 0 -107.5 -52t-37.5 -140q0 -85 40 -139t107 -54q68 0 106.5 52.5t38.5 139.5t-38.5 140t-108.5 53zM315 584h-82q59 50 59 85
q0 37 -42 37q-31 0 -60 -17l-20 53q43 29 99 29q47 0 74 -25t27 -62q0 -50 -55 -100z" />
    <glyph glyph-name="uni1ED0" unicode="&#x1ed0;" horiz-adv-x="751" 
d="M380 706q145 0 231.5 -98.5t86.5 -255.5q0 -154 -85 -258t-241 -104q-149 0 -234 101t-85 257q0 155 87 256.5t240 101.5zM376 627q-112 0 -169 -78.5t-57 -197.5t59.5 -200.5t166.5 -81.5q77 0 129.5 40.5t74.5 101.5t22 139q0 120 -58 198.5t-168 78.5zM328 879h91
l133 -121h-99l-78 70l-77 -70h-97zM598 973h105l-129 -116h-80z" />
    <glyph glyph-name="uni1ED1" unicode="&#x1ed1;" horiz-adv-x="550" 
d="M278 519q106 0 169.5 -72.5t63.5 -191.5q0 -115 -63.5 -191t-175.5 -76q-107 0 -170 74t-63 191q0 116 63.5 191t175.5 75zM274 446q-70 0 -107.5 -52t-37.5 -140q0 -85 40 -139t107 -54q68 0 106.5 52.5t38.5 139.5t-38.5 140t-108.5 53zM228 702h91l106 -133h-83
l-69 87l-68 -87h-82zM492 814h95l-132 -131h-72z" />
    <glyph glyph-name="uni1ED2" unicode="&#x1ed2;" horiz-adv-x="751" 
d="M380 706q145 0 231.5 -98.5t86.5 -255.5q0 -154 -85 -258t-241 -104q-149 0 -234 101t-85 257q0 155 87 256.5t240 101.5zM376 627q-112 0 -169 -78.5t-57 -197.5t59.5 -200.5t166.5 -81.5q77 0 129.5 40.5t74.5 101.5t22 139q0 120 -58 198.5t-168 78.5zM328 879h91
l133 -121h-99l-78 70l-77 -70h-97zM438 960h110l103 -112h-77z" />
    <glyph glyph-name="uni1ED3" unicode="&#x1ed3;" horiz-adv-x="550" 
d="M278 519q106 0 169.5 -72.5t63.5 -191.5q0 -115 -63.5 -191t-175.5 -76q-107 0 -170 74t-63 191q0 116 63.5 191t175.5 75zM274 446q-70 0 -107.5 -52t-37.5 -140q0 -85 40 -139t107 -54q68 0 106.5 52.5t38.5 139.5t-38.5 140t-108.5 53zM228 702h91l106 -133h-83
l-69 87l-68 -87h-82zM328 807h97l103 -134h-73z" />
    <glyph glyph-name="uni1ED4" unicode="&#x1ed4;" horiz-adv-x="751" 
d="M380 706q145 0 231.5 -98.5t86.5 -255.5q0 -154 -85 -258t-241 -104q-149 0 -234 101t-85 257q0 155 87 256.5t240 101.5zM376 627q-112 0 -169 -78.5t-57 -197.5t59.5 -200.5t166.5 -81.5q77 0 129.5 40.5t74.5 101.5t22 139q0 120 -58 198.5t-168 78.5zM585 854h-75
q55 41 55 76q0 31 -39 31q-28 0 -57 -18l-20 47q41 31 93 31q43 0 67 -22.5t24 -57.5q0 -52 -48 -87zM328 879h91l133 -121h-99l-78 71l-77 -71h-97z" />
    <glyph glyph-name="uni1ED5" unicode="&#x1ed5;" horiz-adv-x="550" 
d="M278 519q106 0 169.5 -72.5t63.5 -191.5q0 -115 -63.5 -191t-175.5 -76q-107 0 -170 74t-63 191q0 116 63.5 191t175.5 75zM274 446q-70 0 -107.5 -52t-37.5 -140q0 -85 40 -139t107 -54q68 0 106.5 52.5t38.5 139.5t-38.5 140t-108.5 53zM472 673h-74q56 43 56 76
q0 30 -36 30q-33 0 -55 -19l-20 45q37 31 90 31q43 0 65 -20t22 -56q0 -50 -48 -87zM228 702h91l106 -133h-83l-69 87l-68 -87h-82z" />
    <glyph glyph-name="uni1ED6" unicode="&#x1ed6;" horiz-adv-x="751" 
d="M380 706q145 0 231.5 -98.5t86.5 -255.5q0 -154 -85 -258t-241 -104q-149 0 -234 101t-85 257q0 155 87 256.5t240 101.5zM376 627q-112 0 -169 -78.5t-57 -197.5t59.5 -200.5t166.5 -81.5q77 0 129.5 40.5t74.5 101.5t22 139q0 120 -58 198.5t-168 78.5zM273 887h-54v11
q0 84 75 84q31 0 85 -17t72 -17q29 0 29 26v7h53v-12q0 -82 -75 -82q-26 0 -82.5 18t-75.5 18q-27 0 -27 -29v-7zM327 850h97l124 -96h-96l-78 55l-75 -55h-96z" />
    <glyph glyph-name="uni1ED7" unicode="&#x1ed7;" horiz-adv-x="550" 
d="M278 519q106 0 169.5 -72.5t63.5 -191.5q0 -115 -63.5 -191t-175.5 -76q-107 0 -170 74t-63 191q0 116 63.5 191t175.5 75zM274 446q-70 0 -107.5 -52t-37.5 -140q0 -85 40 -139t107 -54q68 0 106.5 52.5t38.5 139.5t-38.5 140t-108.5 53zM190 711h-54v10q0 85 72 85
q30 0 71 -18t54 -18q27 0 27 27v8h53v-12q0 -82 -75 -82q-25 0 -65.5 18.5t-55.5 18.5q-27 0 -27 -31v-6zM226 668h94l111 -103h-90l-69 62l-66 -62h-88z" />
    <glyph glyph-name="uni1ED8" unicode="&#x1ed8;" horiz-adv-x="751" 
d="M380 706q145 0 231.5 -98.5t86.5 -255.5q0 -154 -85 -258t-241 -104q-149 0 -234 101t-85 257q0 155 87 256.5t240 101.5zM376 627q-112 0 -169 -78.5t-57 -197.5t59.5 -200.5t166.5 -81.5q77 0 129.5 40.5t74.5 101.5t22 139q0 120 -58 198.5t-168 78.5zM422 -187h-93
v108h93v-108zM333 888h92l130 -131h-93l-84 83l-89 -83h-92z" />
    <glyph glyph-name="uni1ED9" unicode="&#x1ed9;" horiz-adv-x="550" 
d="M278 519q106 0 169.5 -72.5t63.5 -191.5q0 -115 -63.5 -191t-175.5 -76q-107 0 -170 74t-63 191q0 116 63.5 191t175.5 75zM274 446q-70 0 -107.5 -52t-37.5 -140q0 -85 40 -139t107 -54q68 0 106.5 52.5t38.5 139.5t-38.5 140t-108.5 53zM320 -184h-93v108h93v-108z
M232 734h83l111 -152h-86l-67 101l-66 -101h-85z" />
    <glyph glyph-name="uni1EDA" unicode="&#x1eda;" horiz-adv-x="751" 
d="M380 706q115 0 195 -64q48 15 48 61q0 30 -11 59h81q8 -24 8 -56q0 -39 -19 -70.5t-56 -46.5q72 -93 72 -237q0 -154 -85 -258t-241 -104q-149 0 -234 101t-85 257q0 155 87 256.5t240 101.5zM376 627q-112 0 -169 -78.5t-57 -197.5t59.5 -200.5t166.5 -81.5
q77 0 129.5 40.5t74.5 101.5t22 139q0 120 -58 198.5t-168 78.5zM465 897h115l-171 -137h-91z" />
    <glyph glyph-name="uni1EDB" unicode="&#x1edb;" horiz-adv-x="550" 
d="M278 519q88 0 149 -52q56 14 56 63q0 30 -11 59h81q8 -24 8 -56q0 -43 -22.5 -75.5t-65.5 -46.5q38 -66 38 -156q0 -115 -63.5 -191t-175.5 -76q-107 0 -170 74t-63 191q0 116 63.5 191t175.5 75zM274 446q-70 0 -107.5 -52t-37.5 -140q0 -85 40 -139t107 -54
q68 0 106.5 52.5t38.5 139.5t-38.5 140t-108.5 53zM348 744h108l-154 -153h-82z" />
    <glyph glyph-name="uni1EDC" unicode="&#x1edc;" horiz-adv-x="751" 
d="M380 706q115 0 195 -64q48 15 48 61q0 30 -11 59h81q8 -24 8 -56q0 -39 -19 -70.5t-56 -46.5q72 -93 72 -237q0 -154 -85 -258t-241 -104q-149 0 -234 101t-85 257q0 155 87 256.5t240 101.5zM376 627q-112 0 -169 -78.5t-57 -197.5t59.5 -200.5t166.5 -81.5
q77 0 129.5 40.5t74.5 101.5t22 139q0 120 -58 198.5t-168 78.5zM186 897h116l137 -137h-89z" />
    <glyph glyph-name="uni1EDD" unicode="&#x1edd;" horiz-adv-x="550" 
d="M278 519q88 0 149 -52q56 14 56 63q0 30 -11 59h81q8 -24 8 -56q0 -43 -22.5 -75.5t-65.5 -46.5q38 -66 38 -156q0 -115 -63.5 -191t-175.5 -76q-107 0 -170 74t-63 191q0 116 63.5 191t175.5 75zM274 446q-70 0 -107.5 -52t-37.5 -140q0 -85 40 -139t107 -54
q68 0 106.5 52.5t38.5 139.5t-38.5 140t-108.5 53zM94 744h109l128 -153h-83z" />
    <glyph glyph-name="uni1EDE" unicode="&#x1ede;" horiz-adv-x="751" 
d="M380 706q115 0 195 -64q48 15 48 61q0 30 -11 59h81q8 -24 8 -56q0 -39 -19 -70.5t-56 -46.5q72 -93 72 -237q0 -154 -85 -258t-241 -104q-149 0 -234 101t-85 257q0 155 87 256.5t240 101.5zM376 627q-112 0 -169 -78.5t-57 -197.5t59.5 -200.5t166.5 -81.5
q77 0 129.5 40.5t74.5 101.5t22 139q0 120 -58 198.5t-168 78.5zM417 757h-82q59 50 59 85q0 37 -42 37q-31 0 -60 -17l-20 53q43 29 99 29q47 0 74 -25t27 -62q0 -50 -55 -100z" />
    <glyph glyph-name="uni1EDF" unicode="&#x1edf;" horiz-adv-x="550" 
d="M278 519q88 0 149 -52q56 14 56 63q0 30 -11 59h81q8 -24 8 -56q0 -43 -22.5 -75.5t-65.5 -46.5q38 -66 38 -156q0 -115 -63.5 -191t-175.5 -76q-107 0 -170 74t-63 191q0 116 63.5 191t175.5 75zM274 446q-70 0 -107.5 -52t-37.5 -140q0 -85 40 -139t107 -54
q68 0 106.5 52.5t38.5 139.5t-38.5 140t-108.5 53zM315 584h-82q59 50 59 85q0 37 -42 37q-31 0 -60 -17l-20 53q43 29 99 29q47 0 74 -25t27 -62q0 -50 -55 -100z" />
    <glyph glyph-name="uni1EE0" unicode="&#x1ee0;" horiz-adv-x="751" 
d="M380 706q115 0 195 -64q48 15 48 61q0 30 -11 59h81q8 -24 8 -56q0 -39 -19 -70.5t-56 -46.5q72 -93 72 -237q0 -154 -85 -258t-241 -104q-149 0 -234 101t-85 257q0 155 87 256.5t240 101.5zM376 627q-112 0 -169 -78.5t-57 -197.5t59.5 -200.5t166.5 -81.5
q77 0 129.5 40.5t74.5 101.5t22 139q0 120 -58 198.5t-168 78.5zM270 766h-64v22q0 98 86 98q34 0 90 -26.5t71 -26.5q32 0 32 43v12h61v-21q0 -56 -21.5 -79.5t-63.5 -23.5q-31 0 -87 26.5t-75 26.5q-29 0 -29 -34v-17z" />
    <glyph glyph-name="uni1EE1" unicode="&#x1ee1;" horiz-adv-x="550" 
d="M278 519q88 0 149 -52q56 14 56 63q0 30 -11 59h81q8 -24 8 -56q0 -43 -22.5 -75.5t-65.5 -46.5q38 -66 38 -156q0 -115 -63.5 -191t-175.5 -76q-107 0 -170 74t-63 191q0 116 63.5 191t175.5 75zM274 446q-70 0 -107.5 -52t-37.5 -140q0 -85 40 -139t107 -54
q68 0 106.5 52.5t38.5 139.5t-38.5 140t-108.5 53zM181 605h-62v23q0 96 81 96q30 0 77 -24.5t63 -24.5q28 0 28 42v10h61v-21q0 -102 -83 -102q-30 0 -75 25t-64 25q-26 0 -26 -33v-16z" />
    <glyph glyph-name="uni1EE2" unicode="&#x1ee2;" horiz-adv-x="751" 
d="M380 706q115 0 195 -64q48 15 48 61q0 30 -11 59h81q8 -24 8 -56q0 -39 -19 -70.5t-56 -46.5q72 -93 72 -237q0 -154 -85 -258t-241 -104q-149 0 -234 101t-85 257q0 155 87 256.5t240 101.5zM376 627q-112 0 -169 -78.5t-57 -197.5t59.5 -200.5t166.5 -81.5
q77 0 129.5 40.5t74.5 101.5t22 139q0 120 -58 198.5t-168 78.5zM422 -185h-93v108h93v-108z" />
    <glyph glyph-name="uni1EE3" unicode="&#x1ee3;" horiz-adv-x="550" 
d="M278 519q88 0 149 -52q56 14 56 63q0 30 -11 59h81q8 -24 8 -56q0 -43 -22.5 -75.5t-65.5 -46.5q38 -66 38 -156q0 -115 -63.5 -191t-175.5 -76q-107 0 -170 74t-63 191q0 116 63.5 191t175.5 75zM274 446q-70 0 -107.5 -52t-37.5 -140q0 -85 40 -139t107 -54
q68 0 106.5 52.5t38.5 139.5t-38.5 140t-108.5 53zM320 -184h-93v108h93v-108z" />
    <glyph glyph-name="uni1EE4" unicode="&#x1ee4;" horiz-adv-x="714" 
d="M85 696h94v-419q0 -113 51 -161t128 -48q85 0 131.5 47.5t46.5 161.5v419h93v-414q0 -291 -273 -291q-57 0 -104 14.5t-85.5 46.5t-60 89t-21.5 134v421zM403 -186h-93v108h93v-108z" />
    <glyph glyph-name="uni1EE5" unicode="&#x1ee5;" horiz-adv-x="557" 
d="M482 507v-359q0 -28 0.5 -82t0.5 -66h-85q-2 13 -4 76q-39 -88 -153 -88q-73 0 -120.5 43.5t-47.5 142.5v333h87v-315q0 -128 105 -128q69 0 99 41.5t30 137.5v264h88zM324 -188h-93v108h93v-108z" />
    <glyph glyph-name="uni1EE6" unicode="&#x1ee6;" horiz-adv-x="714" 
d="M85 696h94v-419q0 -113 51 -161t128 -48q85 0 131.5 47.5t46.5 161.5v419h93v-414q0 -291 -273 -291q-57 0 -104 14.5t-85.5 46.5t-60 89t-21.5 134v421zM396 753h-82q59 50 59 85q0 37 -42 37q-31 0 -60 -17l-20 53q43 29 99 29q47 0 74 -25t27 -62q0 -50 -55 -100z" />
    <glyph glyph-name="uni1EE7" unicode="&#x1ee7;" horiz-adv-x="557" 
d="M482 507v-359q0 -28 0.5 -82t0.5 -66h-85q-2 13 -4 76q-39 -88 -153 -88q-73 0 -120.5 43.5t-47.5 142.5v333h87v-315q0 -128 105 -128q69 0 99 41.5t30 137.5v264h88zM310 584h-82q59 50 59 85q0 37 -42 37q-31 0 -60 -17l-20 53q43 29 99 29q47 0 74 -25t27 -62
q0 -50 -55 -100z" />
    <glyph glyph-name="uni1EE8" unicode="&#x1ee8;" horiz-adv-x="714" 
d="M85 696h94v-419q0 -113 51 -161t128 -48q85 0 131.5 47.5t46.5 161.5v419h50q60 12 60 64q0 30 -11 59h81q8 -24 8 -56q0 -45 -24.5 -78t-70.5 -45v-358q0 -291 -273 -291q-57 0 -104 14.5t-85.5 46.5t-60 89t-21.5 134v421zM449 895h115l-171 -137h-91z" />
    <glyph glyph-name="uni1EE9" unicode="&#x1ee9;" horiz-adv-x="557" 
d="M394 76q-39 -88 -153 -88q-73 0 -120.5 43.5t-47.5 142.5v333h87v-315q0 -128 105 -128q69 0 99 41.5t30 137.5v264h38v1q70 11 70 66q0 30 -11 59h81q8 -24 8 -56q0 -46 -25.5 -79t-72.5 -45v-305q0 -28 0.5 -82t0.5 -66h-85q-2 13 -4 76zM352 744h108l-154 -153h-82z
" />
    <glyph glyph-name="uni1EEA" unicode="&#x1eea;" horiz-adv-x="714" 
d="M85 696h94v-419q0 -113 51 -161t128 -48q85 0 131.5 47.5t46.5 161.5v419h50q60 12 60 64q0 30 -11 59h81q8 -24 8 -56q0 -45 -24.5 -78t-70.5 -45v-358q0 -291 -273 -291q-57 0 -104 14.5t-85.5 46.5t-60 89t-21.5 134v421zM166 891h116l137 -137h-89z" />
    <glyph glyph-name="uni1EEB" unicode="&#x1eeb;" horiz-adv-x="557" 
d="M394 76q-39 -88 -153 -88q-73 0 -120.5 43.5t-47.5 142.5v333h87v-315q0 -128 105 -128q69 0 99 41.5t30 137.5v264h38v1q70 11 70 66q0 30 -11 59h81q8 -24 8 -56q0 -46 -25.5 -79t-72.5 -45v-305q0 -28 0.5 -82t0.5 -66h-85q-2 13 -4 76zM104 744h109l128 -153h-83z
" />
    <glyph glyph-name="uni1EEC" unicode="&#x1eec;" horiz-adv-x="714" 
d="M85 696h94v-419q0 -113 51 -161t128 -48q85 0 131.5 47.5t46.5 161.5v419h50q60 12 60 64q0 30 -11 59h81q8 -24 8 -56q0 -45 -24.5 -78t-70.5 -45v-358q0 -291 -273 -291q-57 0 -104 14.5t-85.5 46.5t-60 89t-21.5 134v421zM397 754h-82q59 50 59 85q0 37 -42 37
q-31 0 -60 -17l-20 53q43 29 99 29q47 0 74 -25t27 -62q0 -50 -55 -100z" />
    <glyph glyph-name="uni1EED" unicode="&#x1eed;" horiz-adv-x="557" 
d="M394 76q-39 -88 -153 -88q-73 0 -120.5 43.5t-47.5 142.5v333h87v-315q0 -128 105 -128q69 0 99 41.5t30 137.5v264h38v1q70 11 70 66q0 30 -11 59h81q8 -24 8 -56q0 -46 -25.5 -79t-72.5 -45v-305q0 -28 0.5 -82t0.5 -66h-85q-2 13 -4 76zM319 584h-82q59 50 59 85
q0 37 -42 37q-31 0 -60 -17l-20 53q43 29 99 29q47 0 74 -25t27 -62q0 -50 -55 -100z" />
    <glyph glyph-name="uni1EEE" unicode="&#x1eee;" horiz-adv-x="714" 
d="M85 696h94v-419q0 -113 51 -161t128 -48q85 0 131.5 47.5t46.5 161.5v419h50q60 12 60 64q0 30 -11 59h81q8 -24 8 -56q0 -45 -24.5 -78t-70.5 -45v-358q0 -291 -273 -291q-57 0 -104 14.5t-85.5 46.5t-60 89t-21.5 134v421zM251 766h-64v22q0 98 86 98q34 0 90 -26.5
t71 -26.5q32 0 32 43v12h61v-21q0 -56 -21.5 -79.5t-63.5 -23.5q-31 0 -87 26.5t-75 26.5q-29 0 -29 -34v-17z" />
    <glyph glyph-name="uni1EEF" unicode="&#x1eef;" horiz-adv-x="557" 
d="M394 76q-39 -88 -153 -88q-73 0 -120.5 43.5t-47.5 142.5v333h87v-315q0 -128 105 -128q69 0 99 41.5t30 137.5v264h38v1q70 11 70 66q0 30 -11 59h81q8 -24 8 -56q0 -46 -25.5 -79t-72.5 -45v-305q0 -28 0.5 -82t0.5 -66h-85q-2 13 -4 76zM185 605h-62v23q0 96 81 96
q30 0 77 -24.5t63 -24.5q28 0 28 42v10h61v-21q0 -102 -83 -102q-30 0 -75 25t-64 25q-26 0 -26 -33v-16z" />
    <glyph glyph-name="uni1EF0" unicode="&#x1ef0;" horiz-adv-x="714" 
d="M85 696h94v-419q0 -113 51 -161t128 -48q85 0 131.5 47.5t46.5 161.5v419h50q60 12 60 64q0 30 -11 59h81q8 -24 8 -56q0 -45 -24.5 -78t-70.5 -45v-358q0 -291 -273 -291q-57 0 -104 14.5t-85.5 46.5t-60 89t-21.5 134v421zM403 -184h-93v108h93v-108z" />
    <glyph glyph-name="uni1EF1" unicode="&#x1ef1;" horiz-adv-x="557" 
d="M394 76q-39 -88 -153 -88q-73 0 -120.5 43.5t-47.5 142.5v333h87v-315q0 -128 105 -128q69 0 99 41.5t30 137.5v264h38v1q70 11 70 66q0 30 -11 59h81q8 -24 8 -56q0 -46 -25.5 -79t-72.5 -45v-305q0 -28 0.5 -82t0.5 -66h-85q-2 13 -4 76zM324 -184h-93v108h93v-108z
" />
    <glyph glyph-name="Ygrave" unicode="&#x1ef2;" horiz-adv-x="591" 
d="M338 0h-93v255q0 13 -5 19l-245 422h106q174 -313 196 -354q31 62 199 354h99l-253 -424q-4 -8 -4 -18v-254zM104 893h116l137 -137h-89z" />
    <glyph glyph-name="ygrave" unicode="&#x1ef3;" horiz-adv-x="481" 
d="M10 507h95q126 -374 141 -429h1q26 93 135 429h88l-182 -530q-38 -112 -77 -149t-116 -37q-25 0 -55 3v76q26 -2 42 -2q47 0 71 23.5t47 88.5zM60 744h109l128 -153h-83z" />
    <glyph glyph-name="uni1EF4" unicode="&#x1ef4;" horiz-adv-x="591" 
d="M338 0h-93v255q0 13 -5 19l-245 422h106q174 -313 196 -354q31 62 199 354h99l-253 -424q-4 -8 -4 -18v-254zM338 -184h-93v108h93v-108z" />
    <glyph glyph-name="uni1EF5" unicode="&#x1ef5;" horiz-adv-x="481" 
d="M10 507h95q126 -374 141 -429h1q26 93 135 429h88l-182 -530q-38 -112 -77 -149t-116 -37q-25 0 -55 3v76q26 -2 42 -2q47 0 71 23.5t47 88.5zM437 -184h-93v108h93v-108z" />
    <glyph glyph-name="uni1EF6" unicode="&#x1ef6;" horiz-adv-x="591" 
d="M338 0h-93v255q0 13 -5 19l-245 422h106q174 -313 196 -354q31 62 199 354h99l-253 -424q-4 -8 -4 -18v-254zM336 746h-82q59 50 59 85q0 37 -42 37q-31 0 -60 -17l-20 53q43 29 99 29q47 0 74 -25t27 -62q0 -50 -55 -100z" />
    <glyph glyph-name="uni1EF7" unicode="&#x1ef7;" horiz-adv-x="481" 
d="M10 507h95q126 -374 141 -429h1q26 93 135 429h88l-182 -530q-38 -112 -77 -149t-116 -37q-25 0 -55 3v76q26 -2 42 -2q47 0 71 23.5t47 88.5zM281 584h-82q59 50 59 85q0 37 -42 37q-31 0 -60 -17l-20 53q43 29 99 29q47 0 74 -25t27 -62q0 -50 -55 -100z" />
    <glyph glyph-name="uni1EF8" unicode="&#x1ef8;" horiz-adv-x="591" 
d="M338 0h-93v255q0 13 -5 19l-245 422h106q174 -313 196 -354q31 62 199 354h99l-253 -424q-4 -8 -4 -18v-254zM189 766h-64v22q0 98 86 98q34 0 90 -26.5t71 -26.5q32 0 32 43v12h61v-21q0 -56 -21.5 -79.5t-63.5 -23.5q-31 0 -87 26.5t-75 26.5q-29 0 -29 -34v-17z" />
    <glyph glyph-name="uni1EF9" unicode="&#x1ef9;" horiz-adv-x="481" 
d="M10 507h95q126 -374 141 -429h1q26 93 135 429h88l-182 -530q-38 -112 -77 -149t-116 -37q-25 0 -55 3v76q26 -2 42 -2q47 0 71 23.5t47 88.5zM147 605h-62v23q0 96 81 96q30 0 77 -24.5t63 -24.5q28 0 28 42v10h61v-21q0 -102 -83 -102q-30 0 -75 25t-64 25
q-26 0 -26 -33v-16z" />
    <glyph glyph-name="uni2007" unicode="&#x2007;" horiz-adv-x="547" 
 />
    <glyph glyph-name="uni2010" unicode="&#x2010;" horiz-adv-x="378" 
d="M58 296h262v-80h-262v80z" />
    <glyph glyph-name="figuredash" unicode="&#x2012;" horiz-adv-x="547" 
d="M86 365h375v-77h-375v77z" />
    <glyph glyph-name="endash" unicode="&#x2013;" horiz-adv-x="516" 
d="M58 295h400v-77h-400v77z" />
    <glyph glyph-name="emdash" unicode="&#x2014;" horiz-adv-x="851" 
d="M58 295h736v-77h-736v77z" />
    <glyph glyph-name="uni2015" unicode="&#x2015;" horiz-adv-x="851" 
d="M58 295h736v-77h-736v77z" />
    <glyph glyph-name="quoteleft" unicode="&#x2018;" horiz-adv-x="200" 
d="M100 734h73q-42 -128 -46 -264h-91q5 63 23.5 139.5t40.5 124.5z" />
    <glyph glyph-name="quoteright" unicode="&#x2019;" horiz-adv-x="200" 
d="M100 470h-73q42 134 46 264h91q-5 -63 -23.5 -139.5t-40.5 -124.5z" />
    <glyph glyph-name="quotesinglbase" unicode="&#x201a;" horiz-adv-x="200" 
d="M100 -130h-73q42 134 46 264h91q-5 -63 -23.5 -140t-40.5 -124z" />
    <glyph glyph-name="quotedblleft" unicode="&#x201c;" horiz-adv-x="380" 
d="M275 726h69q-42 -134 -46 -264h-88q3 61 23.5 140t41.5 124zM102 726h68q-41 -138 -45 -264h-88q3 59 23 138.5t42 125.5z" />
    <glyph glyph-name="quotedblright" unicode="&#x201d;" horiz-adv-x="380" 
d="M105 470h-68q41 136 45 264h88q-3 -61 -23.5 -140t-41.5 -124zM279 470h-69q41 132 45 264h89q-4 -59 -23.5 -138.5t-41.5 -125.5z" />
    <glyph glyph-name="quotedblbase" unicode="&#x201e;" horiz-adv-x="354" 
d="M95 -130h-68q41 129 45 264h89q-4 -62 -24.5 -141.5t-41.5 -122.5zM269 -130h-69q42 136 46 264h88q-4 -59 -23.5 -139t-41.5 -125z" />
    <glyph glyph-name="dagger" unicode="&#x2020;" horiz-adv-x="508" 
d="M192 649h81l-6 -221l168 6v-77l-168 6l6 -495h-81l7 495l-169 -6v77l169 -6z" />
    <glyph glyph-name="daggerdbl" unicode="&#x2021;" horiz-adv-x="508" 
d="M199 154v235l-169 -5v76l169 -7l-7 196h81l-6 -196l168 7v-76l-168 5v-235l168 5v-76l-168 7l6 -222h-81l7 222l-169 -7v76z" />
    <glyph glyph-name="bullet" unicode="&#x2022;" horiz-adv-x="374" 
d="M90 355h194v-201h-194v201z" />
    <glyph glyph-name="ellipsis" unicode="&#x2026;" horiz-adv-x="843" 
d="M161 0h-92v148h92v-148zM445 0h-92v148h92v-148zM727 0h-92v148h92v-148z" />
    <glyph glyph-name="perthousand" unicode="&#x2030;" horiz-adv-x="1264" 
d="M1057 363q78 0 123 -50.5t45 -136.5q0 -82 -44 -135t-125 -54q-79 0 -122 51.5t-43 136.5q0 79 43.5 133.5t122.5 54.5zM1057 299q-42 0 -67 -32t-25 -91q0 -57 24.5 -91t69.5 -34q44 0 68 33t24 92q0 58 -25 90.5t-69 32.5zM206 670q77 0 122 -50t45 -137
q0 -83 -44 -136t-125 -53q-78 0 -121.5 50.5t-43.5 137.5q0 80 44 134t123 54zM205 606q-42 0 -66.5 -32.5t-24.5 -90.5t24 -91.5t69 -33.5q44 0 68.5 33t24.5 92q0 58 -25 90.5t-70 32.5zM267 0h-75l428 658h75zM680 363q78 0 123 -50t45 -137q0 -83 -44 -135.5t-125 -53.5
q-79 0 -122.5 51.5t-43.5 136.5q0 81 44 134.5t123 53.5zM680 299q-41 0 -66.5 -33t-25.5 -90t24.5 -91t69.5 -34q43 0 67.5 33t24.5 92q0 58 -25 90.5t-69 32.5z" />
    <glyph glyph-name="uni2032" unicode="&#x2032;" horiz-adv-x="227" 
d="M122 465h-72l39 269h88z" />
    <glyph glyph-name="uni2033" unicode="&#x2033;" horiz-adv-x="384" 
d="M115 465h-65l38 269h83zM277 465h-65l39 269h83z" />
    <glyph glyph-name="guilsinglleft" unicode="&#x2039;" horiz-adv-x="369" 
d="M311 453l-167 -193l168 -196h-85l-170 196l170 193h84z" />
    <glyph glyph-name="guilsinglright" unicode="&#x203a;" horiz-adv-x="369" 
d="M57 64l168 194l-168 195h85l170 -195l-170 -194h-85z" />
    <glyph glyph-name="fraction" unicode="&#x2044;" horiz-adv-x="186" 
d="M-85 0h-71l431 658h70z" />
    <glyph glyph-name="zero.sups" unicode="&#x2070;" horiz-adv-x="388" 
d="M196 831q76 0 117 -54.5t41 -147.5q0 -99 -41.5 -152t-119.5 -53q-75 0 -116.5 55.5t-41.5 146.5q0 93 43.5 149t117.5 56zM194 771q-85 0 -85 -145q0 -70 23 -106t63 -36q86 0 86 144q0 143 -87 143z" />
    <glyph glyph-name="four.sups" unicode="&#x2074;" horiz-adv-x="368" 
d="M290 428h-67v103h-198v55l181 237h84v-236h61l-6 -56h-55v-103zM96 587h127v81q0 62 3 96q-1 -2 -130 -177z" />
    <glyph glyph-name="five.sups" unicode="&#x2075;" horiz-adv-x="382" 
d="M330 825l-10 -60h-187q-2 -14 -5 -32.5t-6.5 -38.5t-4.5 -28q34 29 93 29q61 0 98 -35.5t37 -93.5q0 -63 -41.5 -102.5t-111.5 -39.5q-69 0 -109 34.5t-46 80.5h71q18 -58 84 -58q38 0 58.5 22t20.5 59q0 34 -19.5 55.5t-59.5 21.5q-57 0 -81 -41l-64 11q27 167 32 216
h251z" />
    <glyph glyph-name="six.sups" unicode="&#x2076;" horiz-adv-x="379" 
d="M335 728h-66q-19 48 -71 48q-85 0 -93 -129q36 49 109 49q62 0 97.5 -36.5t35.5 -94.5q0 -61 -42 -101t-108 -40q-74 0 -118 50.5t-44 148.5q0 86 40.5 146.5t124.5 60.5q60 0 94.5 -30.5t40.5 -71.5zM195 479q35 0 58 20t23 62q0 39 -21 60.5t-61 21.5q-38 0 -60.5 -20
t-22.5 -51q0 -35 21 -64t63 -29z" />
    <glyph glyph-name="seven.sups" unicode="&#x2077;" horiz-adv-x="344" 
d="M29 825h287v-54q-111 -135 -159 -342h-77q16 86 61.5 180t97.5 156h-210v60z" />
    <glyph glyph-name="eight.sups" unicode="&#x2078;" horiz-adv-x="366" 
d="M181 424q-72 0 -111.5 34.5t-39.5 82.5q0 70 69 98q-52 27 -52 83q0 48 34.5 78.5t104.5 30.5q65 0 99 -31.5t34 -74.5q0 -60 -54 -82q71 -28 71 -99q0 -53 -43.5 -86.5t-111.5 -33.5zM183 476q41 0 61 18t20 48q0 71 -82 71q-80 0 -80 -68q0 -30 21 -49.5t60 -19.5z
M184 779q-33 0 -50.5 -15t-17.5 -40q0 -59 69 -59q64 0 64 58q0 56 -65 56z" />
    <glyph glyph-name="nine.sups" unicode="&#x2079;" horiz-adv-x="371" 
d="M37 526h71q18 -48 70 -48q83 0 88 136q-33 -43 -103 -43q-59 0 -96 34.5t-37 90.5q0 57 41 96t109 39q74 0 115 -49t41 -145q0 -91 -38 -152.5t-120 -61.5q-64 0 -99 31t-42 72zM178 775q-34 0 -56 -18.5t-22 -58.5q0 -34 21 -54.5t60 -20.5q80 0 80 66q0 39 -21.5 62.5
t-61.5 23.5z" />
    <glyph glyph-name="parenleft.sups" unicode="&#x207d;" horiz-adv-x="219" 
d="M118 875h68q-85 -119 -85 -255q0 -131 85 -252h-68q-31 39 -55.5 105.5t-24.5 146.5q0 149 80 255z" />
    <glyph glyph-name="parenright.sups" unicode="&#x207e;" horiz-adv-x="219" 
d="M101 384h-68q85 119 85 254q0 131 -85 252h68q32 -38 56.5 -105t24.5 -147q0 -147 -81 -254z" />
    <glyph glyph-name="n.sups" unicode="&#x207f;" horiz-adv-x="383" 
d="M46 262v226q0 90 -1 107h65q3 -33 3 -51q32 58 107 58q48 0 82.5 -29.5t34.5 -100.5v-210h-67v196q0 85 -71 85q-85 0 -85 -101v-180h-68z" />
    <glyph glyph-name="zero.subs" unicode="&#x2080;" horiz-adv-x="388" 
d="M196 230q76 0 117 -54.5t41 -147.5q0 -99 -41.5 -152t-119.5 -53q-75 0 -116.5 55.5t-41.5 146.5q0 93 43.5 149t117.5 56zM194 170q-85 0 -85 -145q0 -70 23 -106t63 -36q86 0 86 144q0 143 -87 143z" />
    <glyph glyph-name="one.subs" unicode="&#x2081;" horiz-adv-x="249" 
d="M179 -173h-72v314q-15 -8 -42.5 -14.5t-41.5 -6.5v55q60 10 107 55h49v-403z" />
    <glyph glyph-name="two.subs" unicode="&#x2082;" horiz-adv-x="362" 
d="M328 -172h-291v5q0 106 131 186q51 31 65.5 47t14.5 41q0 29 -17 46.5t-50 17.5q-65 0 -77 -72h-69q6 60 46 95.5t103 35.5q71 0 105 -37.5t34 -82.5t-23.5 -71t-81.5 -60q-83 -49 -97 -92h218z" />
    <glyph glyph-name="three.subs" unicode="&#x2083;" horiz-adv-x="372" 
d="M147 8v60h33q67 0 67 49q0 56 -68 56q-60 0 -76 -57h-65q2 16 9 33t22 36.5t44.5 31.5t68.5 12q66 0 101 -30.5t35 -77.5q0 -58 -57 -80q31 -9 52.5 -33.5t21.5 -61.5q0 -51 -37.5 -87t-115.5 -36q-42 0 -73 12.5t-47 33t-23.5 38t-9.5 35.5h69q6 -27 28.5 -45t57.5 -18
q37 0 57 18t20 47q0 64 -77 64h-37z" />
    <glyph glyph-name="four.subs" unicode="&#x2084;" horiz-adv-x="368" 
d="M290 -173h-67v103h-198v55l181 237h84v-236h61l-6 -56h-55v-103zM96 -14h127v81q0 61 3 96q-1 -2 -130 -177z" />
    <glyph glyph-name="five.subs" unicode="&#x2085;" horiz-adv-x="382" 
d="M330 224l-10 -60h-187q-2 -14 -5 -32.5t-6.5 -38.5t-4.5 -28q34 29 93 29q61 0 98 -35.5t37 -93.5q0 -63 -41.5 -102.5t-111.5 -39.5q-69 0 -109 34.5t-46 80.5h71q18 -58 84 -58q38 0 58.5 22t20.5 59q0 34 -19.5 55.5t-59.5 21.5q-57 0 -81 -41l-64 11q27 167 32 216
h251z" />
    <glyph glyph-name="six.subs" unicode="&#x2086;" horiz-adv-x="379" 
d="M335 127h-66q-19 48 -71 48q-85 0 -93 -129q36 49 109 49q62 0 97.5 -36.5t35.5 -94.5q0 -61 -42 -101t-108 -40q-74 0 -118 50.5t-44 148.5q0 86 40.5 146.5t124.5 60.5q60 0 94.5 -30.5t40.5 -71.5zM195 -122q35 0 58 20t23 62q0 39 -21 60.5t-61 21.5q-38 0 -60.5 -20
t-22.5 -51q0 -35 21 -64t63 -29z" />
    <glyph glyph-name="seven.subs" unicode="&#x2087;" horiz-adv-x="344" 
d="M29 224h287v-54q-111 -135 -159 -342h-77q16 86 61.5 180t97.5 156h-210v60z" />
    <glyph glyph-name="eight.subs" unicode="&#x2088;" horiz-adv-x="366" 
d="M181 -177q-72 0 -111.5 34.5t-39.5 82.5q0 70 69 98q-52 27 -52 83q0 48 34.5 78.5t104.5 30.5q65 0 99 -31.5t34 -74.5q0 -60 -54 -82q71 -28 71 -99q0 -53 -43.5 -86.5t-111.5 -33.5zM183 -125q41 0 61 18t20 48q0 71 -82 71q-80 0 -80 -68q0 -30 21 -49.5t60 -19.5z
M184 178q-33 0 -50.5 -15t-17.5 -40q0 -59 69 -59q64 0 64 58q0 56 -65 56z" />
    <glyph glyph-name="nine.subs" unicode="&#x2089;" horiz-adv-x="371" 
d="M37 -75h71q18 -48 70 -48q83 0 88 136q-33 -43 -103 -43q-59 0 -96 34.5t-37 90.5q0 57 41 96t109 39q74 0 115 -49t41 -145q0 -91 -38 -152.5t-120 -61.5q-64 0 -99 31t-42 72zM178 174q-34 0 -56 -18.5t-22 -58.5q0 -34 21 -54.5t60 -20.5q80 0 80 66q0 39 -21.5 62.5
t-61.5 23.5z" />
    <glyph glyph-name="parenleft.subs" unicode="&#x208d;" horiz-adv-x="219" 
d="M118 274h68q-85 -119 -85 -255q0 -131 85 -252h-68q-31 39 -55.5 105.5t-24.5 146.5q0 149 80 255z" />
    <glyph glyph-name="parenright.subs" unicode="&#x208e;" horiz-adv-x="219" 
d="M101 -217h-68q85 119 85 254q0 131 -85 252h68q32 -38 56.5 -105t24.5 -147q0 -147 -81 -254z" />
    <glyph glyph-name="colonmonetary" unicode="&#x20a1;" horiz-adv-x="527" 
d="M278 67q12 0 17 1v525h-12q-17 0 -30 -3v-521q16 -2 25 -2zM131 327q0 -179 72 -236v477q-72 -55 -72 -241zM253 -96h-50v99q-78 28 -120 112t-42 210q0 132 41.5 215t120.5 112v79h50v-67q22 2 35 2h7v65h50v-71q66 -15 102.5 -61t43.5 -103h-87q-17 64 -59 84v-499
q38 19 61 77h87q-32 -131 -148 -159v-94h-50v86h-17q-17 0 -25 1v-88z" />
    <glyph glyph-name="franc" unicode="&#x20a3;" horiz-adv-x="501" 
d="M100 0v138h-86v66h86v454h366v-77h-277v-198h258v-76h-258v-103h130v-66h-130v-138h-89z" />
    <glyph glyph-name="lira" unicode="&#x20a4;" horiz-adv-x="514" 
d="M485 0h-450v71q41 18 57.5 59t18.5 107h-90v56h91q-1 17 -3 68h-88v57h86v28q0 223 188 223q88 0 131.5 -49t49.5 -111h-85q-14 86 -99 86q-53 0 -75 -35t-22 -106v-36h151v-57h-149q0 -9 0.5 -31.5t0.5 -36.5h148v-56h-149q-5 -110 -49 -159h349z" />
    <glyph glyph-name="uni20A6" unicode="&#x20a6;" horiz-adv-x="543" 
d="M136 585q4 -46 6 -150h53l-54 150h-5zM386 88h6q-5 67 -7 159h-56zM142 0h-72v247h-50v57h50v73h-50v58h50v223h111l80 -223h123v223h70v-223h52v-58h-52v-73h52v-57h-52v-247h-104l-88 247h-120v-247zM384 304v73h-102l26 -73h76zM241 304l-26 73h-73v-73h99z" />
    <glyph glyph-name="peseta" unicode="&#x20a7;" horiz-adv-x="524" 
d="M66 0v418h-63v61h63v179h167q94 0 156 -46.5t71 -132.5h50v-61h-50q-10 -86 -72 -133.5t-162 -47.5h-76v-237h-84zM150 589v-110h224q-17 110 -146 110h-78zM150 307h74q135 0 150 111h-224v-111z" />
    <glyph glyph-name="dong" unicode="&#x20ab;" horiz-adv-x="534" 
d="M52 -76h409v-65h-409v65zM370 667h84v-71h63v-64h-63v-390q0 -103 1 -142h-80q-5 32 -5 68q-43 -77 -147 -77q-83 0 -138.5 62t-55.5 170q0 110 60 173.5t147 63.5q96 0 134 -59v131h-227v64h227v71zM116 224q0 -76 35.5 -118.5t94.5 -42.5q56 0 92 39.5t36 132.5
q0 80 -34 117t-91 37q-65 0 -99 -44.5t-34 -120.5z" />
    <glyph glyph-name="Euro" unicode="&#x20ac;" horiz-adv-x="540" 
d="M424 156h86q-19 -80 -71 -123.5t-129 -43.5q-97 0 -152.5 67t-69.5 189h-62v60h58v23q0 26 1 39h-59v60h65q18 116 76.5 179t147.5 63q88 0 137 -49.5t58 -115.5h-86q-26 91 -112 91q-112 0 -134 -168h185v-60h-190q-1 -11 -1 -36v-26h191v-60h-186q21 -180 135 -180
q81 0 112 91z" />
    <glyph glyph-name="uni20B1" unicode="&#x20b1;" horiz-adv-x="572" 
d="M90 0v365h-59v54h59v51h-59v53h59v135h175q81 0 139 -34.5t79 -100.5h55v-53h-44q1 -8 1 -26q0 -17 -1 -25h44v-54h-55q-24 -68 -84.5 -104t-145.5 -36h-79v-225h-84zM174 592v-69h222q-34 69 -132 69h-90zM412 443q0 11 -2 27h-236v-51h237q1 7 1 24zM174 292h79
q108 0 144 73h-223v-73z" />
    <glyph glyph-name="uni20B2" unicode="&#x20b2;" horiz-adv-x="551" 
d="M501 498h-86q-21 86 -99 96v-530q61 2 91 19v243h89v-292q-96 -43 -180 -45v-86h-56v89q-210 30 -210 343q0 146 54.5 232t155.5 99v66h56v-65q80 -5 129 -51t56 -118zM140 341q0 -237 120 -271v523q-120 -25 -120 -252z" />
    <glyph glyph-name="uni20B4" unicode="&#x20b4;" horiz-adv-x="527" 
d="M153 508h-85q9 76 62 119t133 43q93 0 140.5 -48.5t47.5 -114.5q0 -51 -22 -85h50v-54h-102q-33 -26 -94 -59q-2 -1 -6 -3.5t-6 -3.5h198v-54h-280q-47 -39 -47 -88q0 -43 33 -72t83 -29q109 0 131 102h84q-12 -84 -67.5 -128.5t-151.5 -44.5q-85 0 -142 46.5t-57 120.5
q0 54 28 93h-42v54h97q45 33 105 66h-192v54h274q40 35 40 83q0 38 -26 66.5t-76 28.5q-93 0 -110 -92z" />
    <glyph glyph-name="uni20B5" unicode="&#x20b5;" horiz-adv-x="543" 
d="M131 327q0 -230 115 -258v522q-60 -14 -87.5 -78.5t-27.5 -185.5zM303 -97h-57v90q-99 12 -152 98.5t-53 233.5q0 152 52.5 238t152.5 100v69h57v-66q87 -5 133.5 -55.5t54.5 -121.5h-87q-25 95 -101 105v-528q39 4 63 27t40 77h87q-32 -167 -190 -178v-89z" />
    <glyph glyph-name="uni20B9" unicode="&#x20b9;" horiz-adv-x="521" 
d="M50 271v68h93q69 0 116.5 29t47.5 101v5h-257v58h243q-33 65 -143 65h-100v61h439v-59h-146q30 -29 43 -67h103v-58h-94v-5q0 -141 -148 -183l214 -286h-102l-204 271h-18h-87z" />
    <glyph glyph-name="uni20BA" unicode="&#x20ba;" horiz-adv-x="554" 
d="M214 0h-90v258l-89 -38v61l89 39v75l-89 -39v61l89 39v202h87v-165l128 56v-61l-128 -56v-75l128 56v-62l-128 -55v-223q99 0 147 45t59 141h79q-3 -52 -18.5 -96t-47 -82t-86.5 -59.5t-130 -21.5z" />
    <glyph glyph-name="uni20BD" unicode="&#x20bd;" horiz-adv-x="572" 
d="M104 0v152h-76v64h76v78h-76v72h76v292h196q105 0 163.5 -47.5t58.5 -131.5q0 -185 -222 -185h-105v-78h182v-64h-182v-152h-91zM195 585v-219h105q68 0 98.5 27t30.5 83q0 52 -33 80.5t-98 28.5h-103z" />
    <glyph glyph-name="uni2113" unicode="&#x2113;" horiz-adv-x="419" 
d="M318 161h84q-8 -85 -49 -127.5t-121 -42.5q-148 0 -148 168v43q-11 -8 -56 -36l-22 63q29 18 77 49v251q0 109 42.5 159.5t108.5 50.5q67 0 103 -43t36 -119q0 -96 -47 -173t-153 -158v-68q0 -114 66 -114q34 0 52 20t27 77zM173 547v-210q117 104 117 238q0 93 -57 93
q-60 0 -60 -121z" />
    <glyph glyph-name="uni2116" unicode="&#x2116;" horiz-adv-x="1043" 
d="M169 0h-82v677h118q273 -492 306 -577h1q-6 80 -6 322v255h82v-677h-110q-255 472 -315 594h-1q7 -90 7 -330v-264zM733 434q0 -63 26 -97t70 -34q46 0 70.5 33.5t24.5 97.5t-25.5 97.5t-72.5 33.5q-42 0 -67.5 -34t-25.5 -97zM683 175h289v-66h-289v66zM827 629
q81 0 127 -53t46 -142q0 -90 -46.5 -144t-127.5 -54q-76 0 -122.5 54.5t-46.5 143.5q0 87 47 141t123 54z" />
    <glyph glyph-name="uni2117" unicode="&#x2117;" horiz-adv-x="791" 
d="M265 158v385h156q56 0 96.5 -32.5t40.5 -90.5q0 -63 -38 -95.5t-102 -32.5h-89v-134h-64zM330 488v-143h83q77 0 77 72q0 69 -77 71h-83zM392 705q149 0 245.5 -100.5t96.5 -255.5q0 -156 -97 -257.5t-245 -101.5q-150 0 -247 100t-97 259q0 153 98.5 254.5t245.5 101.5z
M391 653q-124 0 -205 -82.5t-81 -224.5q0 -131 81 -217.5t205 -86.5q125 0 205.5 84t80.5 223q0 133 -80.5 218.5t-205.5 85.5z" />
    <glyph glyph-name="uni2120" unicode="&#x2120;" horiz-adv-x="471" 
d="M485 459h-49v74q0 72 5 127h-2q-17 -53 -70 -200h-43q-48 144 -64 200h-2q3 -28 4 -132v-69h-47v237h78q7 -20 19 -54.5t21 -61t16 -49.5h1q5 13 26 73.5t33 91.5h74v-237zM-15 535h49q2 -22 17.5 -33.5t36.5 -11.5q46 0 46 32q0 15 -14 23.5t-44 15.5q-46 11 -63.5 28.5
t-17.5 43.5q0 31 22.5 50t66.5 19q46 0 68.5 -21.5t24.5 -53.5h-48q-5 39 -48 39q-38 0 -38 -28q0 -11 8.5 -19t36.5 -15q52 -12 74 -29t22 -48q0 -74 -99 -74q-44 0 -70.5 22.5t-29.5 59.5z" />
    <glyph glyph-name="trademark" unicode="&#x2122;" horiz-adv-x="481" 
d="M500 459h-49v74q0 72 5 127h-2l-70 -200h-43l-64 200h-2q3 -33 3 -132v-69h-47v237h79l56 -165l60 165h74v-237zM-11 696h213v-45h-80v-192h-52v192h-81v45z" />
    <glyph glyph-name="uni2126" unicode="&#x2126;" horiz-adv-x="747" 
d="M374 706q100 0 174 -46.5t109 -118.5t35 -156q0 -206 -170 -306h185v-79h-275v99q166 79 166 283q0 102 -59.5 174t-166.5 72q-104 0 -164.5 -68.5t-60.5 -178.5q0 -101 46.5 -173t121.5 -109v-99h-276v79h181q-167 104 -167 303q0 137 88.5 230.5t232.5 93.5z" />
    <glyph glyph-name="estimated" unicode="&#x212e;" horiz-adv-x="837" 
d="M794 308h-610q-4 0 -4 -4v-121q0 -9 8 -21q37 -53 97 -82.5t130 -29.5q74 0 127 26t96 85h104q-117 -172 -329 -172q-164 0 -267 99.5t-103 241.5q0 139 109 239t266 100q162 0 269 -102t107 -242v-17zM657 374v103q0 6 -10 23q-37 54 -97 82.5t-130 28.5q-71 0 -131 -29
t-100 -84q-9 -14 -9 -23v-101q0 -5 4 -5h469q4 0 4 5z" />
    <glyph glyph-name="onethird" unicode="&#x2153;" horiz-adv-x="824" 
d="M185 1h-71l431 658h70zM188 261h-72v314q-15 -8 -42.5 -14.5t-41.5 -6.5v55q60 10 107 55h49v-403zM595 179v60h33q67 0 67 49q0 56 -68 56q-60 0 -76 -57h-65q2 16 9 33t22 36.5t44.5 31.5t68.5 12q66 0 101 -30.5t35 -77.5q0 -58 -57 -80q31 -9 52.5 -33.5t21.5 -61.5
q0 -51 -37.5 -87t-115.5 -36q-42 0 -73 12.5t-47 33t-23.5 38t-9.5 35.5h69q6 -27 28.5 -45t57.5 -18q37 0 57 18t20 47q0 64 -77 64h-37z" />
    <glyph glyph-name="twothirds" unicode="&#x2154;" horiz-adv-x="922" 
d="M297 1h-71l431 658h70zM332 262h-291v5q0 106 131 186q51 31 65.5 47t14.5 41q0 29 -17 46.5t-50 17.5q-65 0 -77 -72h-69q6 60 46 95.5t103 35.5q71 0 105 -37.5t34 -82.5t-23.5 -71t-81.5 -60q-83 -49 -97 -92h218zM698 179v60h33q67 0 67 49q0 56 -68 56
q-60 0 -76 -57h-65q2 16 9 33t22 36.5t44.5 31.5t68.5 12q66 0 101 -30.5t35 -77.5q0 -58 -57 -80q31 -9 52.5 -33.5t21.5 -61.5q0 -51 -37.5 -87t-115.5 -36q-42 0 -73 12.5t-47 33t-23.5 38t-9.5 35.5h69q6 -27 28.5 -45t57.5 -18q37 0 57 18t20 47q0 64 -77 64h-37z" />
    <glyph glyph-name="oneeighth" unicode="&#x215b;" horiz-adv-x="781" 
d="M163 1h-71l431 658h70zM187 261h-72v314q-15 -8 -42.5 -14.5t-41.5 -6.5v55q60 10 107 55h49v-403zM588 -22q-72 0 -111.5 34.5t-39.5 82.5q0 70 69 98q-52 27 -52 83q0 48 34.5 78.5t104.5 30.5q65 0 99 -31.5t34 -74.5q0 -60 -54 -82q71 -28 71 -99q0 -53 -43.5 -86.5
t-111.5 -33.5zM590 30q41 0 61 18t20 48q0 71 -82 71q-80 0 -80 -68q0 -30 21 -49.5t60 -19.5zM591 333q-33 0 -50.5 -15t-17.5 -40q0 -59 69 -59q64 0 64 58q0 56 -65 56z" />
    <glyph glyph-name="threeeighths" unicode="&#x215c;" horiz-adv-x="895" 
d="M272 1h-71l431 658h70zM702 -5q-72 0 -111.5 34.5t-39.5 82.5q0 70 69 98q-52 27 -52 83q0 48 34.5 78.5t104.5 30.5q65 0 99 -31.5t34 -74.5q0 -60 -54 -82q71 -28 71 -99q0 -53 -43.5 -86.5t-111.5 -33.5zM704 47q41 0 61 18t20 48q0 71 -82 71q-80 0 -80 -68
q0 -30 21 -49.5t60 -19.5zM705 350q-33 0 -50.5 -15t-17.5 -40q0 -59 69 -59q64 0 64 58q0 56 -65 56zM157 442v60h33q67 0 67 49q0 56 -68 56q-60 0 -76 -57h-65q2 16 9 33t22 36.5t44.5 31.5t68.5 12q66 0 101 -30.5t35 -77.5q0 -58 -57 -80q31 -9 52.5 -33.5t21.5 -61.5
q0 -51 -37.5 -87t-115.5 -36q-42 0 -73 12.5t-47 33t-23.5 38t-9.5 35.5h69q6 -27 28.5 -45t57.5 -18q37 0 57 18t20 47q0 64 -77 64h-37z" />
    <glyph glyph-name="fiveeighths" unicode="&#x215d;" horiz-adv-x="908" 
d="M281 1h-71l431 658h70zM343 658l-10 -60h-187q-2 -14 -5 -32.5t-6.5 -38.5t-4.5 -28q34 29 93 29q61 0 98 -35.5t37 -93.5q0 -63 -41.5 -102.5t-111.5 -39.5q-69 0 -109 34.5t-46 80.5h71q18 -58 84 -58q38 0 58.5 22t20.5 59q0 34 -19.5 55.5t-59.5 21.5q-57 0 -81 -41
l-64 11q27 167 32 216h251zM711 -5q-72 0 -111.5 34.5t-39.5 82.5q0 70 69 98q-52 27 -52 83q0 48 34.5 78.5t104.5 30.5q65 0 99 -31.5t34 -74.5q0 -60 -54 -82q71 -28 71 -99q0 -53 -43.5 -86.5t-111.5 -33.5zM713 47q41 0 61 18t20 48q0 71 -82 71q-80 0 -80 -68
q0 -30 21 -49.5t60 -19.5zM714 350q-33 0 -50.5 -15t-17.5 -40q0 -59 69 -59q64 0 64 58q0 56 -65 56z" />
    <glyph glyph-name="seveneighths" unicode="&#x215e;" horiz-adv-x="818" 
d="M183 1h-71l431 658h70zM626 -22q-72 0 -111.5 34.5t-39.5 82.5q0 70 69 98q-52 27 -52 83q0 48 34.5 78.5t104.5 30.5q65 0 99 -31.5t34 -74.5q0 -60 -54 -82q71 -28 71 -99q0 -53 -43.5 -86.5t-111.5 -33.5zM628 30q41 0 61 18t20 48q0 71 -82 71q-80 0 -80 -68
q0 -30 21 -49.5t60 -19.5zM629 333q-33 0 -50.5 -15t-17.5 -40q0 -59 69 -59q64 0 64 58q0 56 -65 56zM44 658h287v-54q-111 -135 -159 -342h-77q16 86 61.5 180t97.5 156h-210v60z" />
    <glyph glyph-name="uni2190" unicode="&#x2190;" horiz-adv-x="875" 
d="M828 321h-648q39 -33 100 -88.5t136 -125t107 -98.5l-48 -51l-428 398v3l428 403l48 -52q-27 -25 -159.5 -147.5t-183.5 -168.5h648v-73z" />
    <glyph glyph-name="arrowup" unicode="&#x2191;" horiz-adv-x="857" 
d="M387 -44v685q-157 -184 -290 -331l-50 51l378 418h2l384 -418l-52 -51q-50 54 -156 174t-140 157v-685h-76z" />
    <glyph glyph-name="uni2192" unicode="&#x2192;" horiz-adv-x="875" 
d="M47 400h648q-39 33 -100 88.5t-136 125t-107 98.5l48 51l428 -398v-3l-428 -403l-48 52q27 25 159.5 147.5t183.5 168.5h-648v73z" />
    <glyph glyph-name="arrowdown" unicode="&#x2193;" horiz-adv-x="857" 
d="M470 749v-685q157 184 290 331l50 -51l-378 -418h-2l-384 418l52 51q50 -54 156 -174t140 -157v685h76z" />
    <glyph glyph-name="partialdiff" unicode="&#x2202;" horiz-adv-x="538" 
d="M95 625v74q31 7 70 7q143 -1 235 -99t92 -286q0 -67 -11 -122t-36.5 -103.5t-74 -76t-116.5 -27.5q-98 -1 -156.5 61.5t-58.5 152.5q0 95 62 155.5t152 60.5q109 0 153 -68v10q-2 113 -68.5 189.5t-180.5 76.5q-37 0 -62 -5zM262 61q38 0 66 16.5t42.5 43t21 54.5t6.5 57
q0 44 -37.5 82.5t-99.5 38.5q-59 0 -96 -38t-37 -108q0 -69 39 -107.5t95 -38.5z" />
    <glyph glyph-name="uni2206" unicode="&#x2206;" horiz-adv-x="645" 
d="M621 0h-598v59l243 637h113l242 -637v-59zM119 80h399l-106 278q-71 185 -93 264h-3q-9 -44 -92 -263z" />
    <glyph glyph-name="product" unicode="&#x220f;" horiz-adv-x="700" 
d="M87 696h526v-796h-91v717h-344v-717h-91v796z" />
    <glyph glyph-name="summation" unicode="&#x2211;" horiz-adv-x="531" 
d="M516 -100h-502v59l252 342l-237 335v60h468v-80h-348l220 -305l-242 -331h400z" />
    <glyph glyph-name="minus" unicode="&#x2212;" horiz-adv-x="713" 
d="M630 241h-547v78h547v-78z" />
    <glyph glyph-name="uni2215" unicode="&#x2215;" horiz-adv-x="186" 
d="M-85 0h-71l431 658h70z" />
    <glyph glyph-name="uni2219" unicode="&#x2219;" horiz-adv-x="203" 
d="M147 200h-92v148h92v-148z" />
    <glyph glyph-name="radical" unicode="&#x221a;" horiz-adv-x="618" 
d="M601 852l-229 -1050h-68l-156 431l-94 -45l-23 61l171 83q117 -340 130 -406q8 81 195 926h74z" />
    <glyph glyph-name="infinity" unicode="&#x221e;" horiz-adv-x="807" 
d="M205 118q-67 0 -112.5 48.5t-45.5 122.5q0 71 46.5 121.5t119.5 50.5q40 0 77.5 -19t58.5 -39.5t55 -58.5q37 40 59.5 60.5t60.5 38.5t81 18q67 0 111 -49t44 -123q0 -70 -46.5 -120.5t-118.5 -50.5q-54 0 -97.5 30.5t-93.5 87.5q-28 -30 -43 -44.5t-42 -35t-54.5 -29.5
t-59.5 -9zM211 189q43 0 77 25.5t74 72.5q-5 6 -23 26t-27.5 30t-26.5 23.5t-34 19.5t-36 6q-45 0 -72 -30.5t-27 -72.5q0 -44 26.5 -72t68.5 -28zM592 189q46 0 72.5 29t26.5 71q0 44 -25.5 73.5t-69.5 29.5q-42 0 -74.5 -23.5t-78.5 -75.5q3 -3 13.5 -15t13.5 -15.5
t13 -14t14.5 -14t14 -12t15 -11.5t14.5 -8.5t16.5 -7.5t16.5 -4t18 -2z" />
    <glyph glyph-name="integral" unicode="&#x222b;" horiz-adv-x="308" 
d="M325 837l-9 -77q-22 6 -46 6q-19 0 -33 -5.5t-23 -19t-14 -26.5t-7.5 -36.5t-3 -41t-0.5 -48.5q0 -72 10 -279t10 -280q0 -45 -2.5 -77t-11.5 -65.5t-24 -54t-42 -33.5t-64 -13q-53 0 -77 11l12 79q24 -8 55 -8q21 0 35.5 10.5t21.5 23t10.5 37.5t4 39.5t0.5 42.5v12
q0 72 -10.5 285.5t-10.5 286.5q0 241 158 241q38 0 61 -10z" />
    <glyph glyph-name="approxequal" unicode="&#x2248;" horiz-adv-x="713" 
d="M156 105h-70v21q0 63 33.5 92.5t88.5 29.5q58 0 155 -35.5t143 -35.5q54 0 54 57v10h69v-23q0 -121 -119 -121q-61 0 -158 35t-138 35q-58 0 -58 -58v-7zM156 323h-70v20q0 123 123 123q57 0 153.5 -35t143.5 -35q30 0 42 14t12 44v8h69v-21q0 -124 -120 -124
q-60 0 -156 35.5t-139 35.5q-58 0 -58 -55v-10z" />
    <glyph glyph-name="notequal" unicode="&#x2260;" horiz-adv-x="713" 
d="M518 558l-52 -112h164v-78h-200l-79 -171h279v-78h-315l-51 -110h-72l50 110h-159v78h195l79 171h-274v78h310l51 112h74z" />
    <glyph glyph-name="lessequal" unicode="&#x2264;" horiz-adv-x="681" 
d="M83 385v76l516 236v-87l-421 -186l421 -192v-86zM599 0h-516v79h516v-79z" />
    <glyph glyph-name="greaterequal" unicode="&#x2265;" horiz-adv-x="681" 
d="M599 458v-78l-516 -234v87l421 184l-421 193v87zM599 0h-516v79h516v-79z" />
    <glyph glyph-name="uni25A0" unicode="&#x25a0;" horiz-adv-x="368" 
d="M69 141v229h230v-229h-230z" />
    <glyph glyph-name="triagup" unicode="&#x25b2;" horiz-adv-x="637" 
d="M601 0h-565l277 612h3z" />
    <glyph glyph-name="uni25B3" unicode="&#x25b3;" horiz-adv-x="637" 
d="M601 0h-565l277 612h3zM137 64h356l-179 402z" />
    <glyph glyph-name="uni25B6" unicode="&#x25b6;" horiz-adv-x="693" 
d="M51 14v565l611 -278v-2z" />
    <glyph glyph-name="uni25B7" unicode="&#x25b7;" horiz-adv-x="693" 
d="M51 14v565l611 -278v-2zM516 298l-399 176v-355z" />
    <glyph glyph-name="triagdn" unicode="&#x25bc;" horiz-adv-x="637" 
d="M36 602h565l-278 -612h-2z" />
    <glyph glyph-name="uni25BD" unicode="&#x25bd;" horiz-adv-x="637" 
d="M36 602h565l-278 -612h-2zM499 538h-355l179 -402z" />
    <glyph glyph-name="uni25C0" unicode="&#x25c0;" horiz-adv-x="693" 
d="M642 579v-565l-611 278v2z" />
    <glyph glyph-name="uni25C1" unicode="&#x25c1;" horiz-adv-x="693" 
d="M642 579v-565l-611 278v2zM576 473l-399 -179l399 -177v356z" />
    <glyph glyph-name="uni25C6" unicode="&#x25c6;" horiz-adv-x="403" 
d="M42 256l158 165l161 -170l-157 -162z" />
    <glyph glyph-name="uni25C9" unicode="&#x25c9;" horiz-adv-x="528" 
d="M265 328q31 0 52 -22.5t21 -52.5q0 -33 -20.5 -56.5t-51.5 -23.5q-34 0 -54 22.5t-20 57.5q0 31 20 53t53 22zM478 253q-2 -94 -62 -158t-150 -64q-91 0 -152.5 64t-61.5 158q0 92 62 156t153 64q89 0 150 -64.5t61 -155.5zM266 415q-66 0 -107.5 -47t-41.5 -115
q0 -71 42 -118.5t107 -47.5q66 0 107.5 47.5t41.5 118.5q0 67 -42.5 114.5t-106.5 47.5z" />
    <glyph glyph-name="lozenge" unicode="&#x25ca;" horiz-adv-x="572" 
d="M450 327l-134 246q-22 41 -30 59h-1q-17 -32 -30 -59l-132 -242l130 -248q29 -58 30 -61h3q2 6 7.5 18t12 24.5t8.5 16.5zM530 329l-206 -372h-82l-201 371l205 372h82z" />
    <glyph glyph-name="uni2610" unicode="&#x2610;" horiz-adv-x="1020" 
d="M161 783h755v-778l-65 -65h-747v785zM163 709v-709h675v709h-675z" />
    <glyph glyph-name="uni2611" unicode="&#x2611;" horiz-adv-x="1020" 
d="M161 783h755v-778l-65 -65h-747v785zM163 709v-709h675v709h-675zM682 647h84q-170 -219 -348 -597h-25q-88 135 -146 279l65 43q45 -140 92 -227q59 136 135 273.5t143 228.5z" />
    <glyph glyph-name="uni2713" unicode="&#x2713;" horiz-adv-x="698" 
d="M596 753h102q-217 -297 -462 -819h-28q-102 152 -176 346l78 50q47 -155 111 -273q188 432 375 696z" />
    <glyph glyph-name="uni2752" unicode="&#x2752;" horiz-adv-x="471" 
d="M63 354l78 79h265v-283l-73 -79h-270v283zM115 342v-216h204v216h-204z" />
    <glyph glyph-name="fi" unicode="&#xfb01;" horiz-adv-x="528" 
d="M178 0h-88v436h-81v71h81v61q0 78 35 127t113 49q38 0 56 -6v-75q-20 5 -44 5q-39 0 -55.5 -25t-16.5 -81v-55h102v-71h-102v-436zM366 0v507h88v-507h-88zM454 625h-88v109h88v-109z" />
    <glyph glyph-name="fl" unicode="&#xfb02;" horiz-adv-x="527" 
d="M178 0h-88v436h-81v71h81v61q0 78 35 127t113 49q38 0 56 -6v-75q-20 5 -44 5q-39 0 -55.5 -25t-16.5 -81v-55h102v-71h-102v-436zM453 0h-88v734h88v-734z" />
    <glyph glyph-name="uni00470303" horiz-adv-x="728" 
d="M656 376v-376h-71q-8 20 -9 94q-63 -103 -216 -103q-146 0 -226.5 98t-80.5 252q0 161 85.5 263t238.5 102q119 0 193.5 -58t89.5 -154h-92q-42 135 -193 135q-114 0 -169.5 -79t-55.5 -205q0 -75 21.5 -135.5t73 -101t126.5 -40.5q195 0 195 221v8h-196v79h286zM258 766
h-64v22q0 98 86 98q34 0 90 -26.5t71 -26.5q32 0 32 43v12h61v-21q0 -56 -21.5 -79.5t-63.5 -23.5q-31 0 -87 26.5t-75 26.5q-29 0 -29 -34v-17z" />
    <glyph glyph-name="uni00670303" horiz-adv-x="567" 
d="M493 361v-315q0 -126 -56 -190.5t-177 -64.5q-104 0 -153 45.5t-57 109.5h89q23 -85 125 -85q81 0 112 47t31 142v41q-43 -89 -158 -89q-94 0 -152 69.5t-58 181.5q0 121 62.5 193.5t156.5 72.5q66 0 102.5 -24t46.5 -55q1 30 5 67h82q0 -12 -0.5 -66t-0.5 -80zM130 257
q0 -80 38.5 -130t100.5 -50q77 0 109 48t32 138q0 91 -30.5 136.5t-107.5 45.5q-68 0 -105 -51.5t-37 -136.5zM190 605h-62v23q0 96 81 96q31 0 78 -24.5t62 -24.5q28 0 28 42v10h61v-21q0 -102 -83 -102q-30 0 -75 25t-64 25q-26 0 -26 -33v-16z" />
    <glyph glyph-name="zero.slash" horiz-adv-x="559" 
d="M282 670q63 0 108.5 -28t70.5 -77.5t36.5 -106.5t11.5 -124q0 -66 -11 -123t-35.5 -109.5t-71.5 -83t-112 -30.5q-63 0 -109.5 28.5t-71.5 78t-37 108t-12 126.5q0 67 12 125.5t38 108t73 78.5t110 29zM283 598q-145 0 -145 -269q0 -92 16 -151l215 382q-32 38 -86 38z
M280 60q140 0 140 273q0 104 -20 168l-218 -389q36 -52 98 -52z" />
    <glyph glyph-name="zero.slashtab" horiz-adv-x="547" 
d="M276 670q63 0 108.5 -28t70.5 -77.5t36.5 -106.5t11.5 -124q0 -66 -11 -123t-35.5 -109.5t-71.5 -83t-112 -30.5q-63 0 -109.5 28.5t-71.5 78t-37 108t-12 126.5q0 67 12 125.5t38 108t73 78.5t110 29zM277 598q-145 0 -145 -269q0 -92 16 -151l215 382q-32 38 -86 38z
M274 60q140 0 140 273q0 104 -20 168l-218 -389q36 -52 98 -52z" />
    <glyph glyph-name="zero.tab" horiz-adv-x="547" 
d="M276 670q51 0 91 -19t65.5 -50.5t41.5 -76t22.5 -91t6.5 -99.5q0 -67 -10.5 -124t-35 -109.5t-71.5 -82.5t-113 -30q-65 0 -111.5 28.5t-71.5 79t-36 108t-11 125.5q0 67 12 125t37.5 108t72.5 79t111 29zM277 595q-55 0 -87.5 -38t-43 -93t-10.5 -135q0 -266 138 -266
q42 0 70 22t42 63t19.5 84.5t5.5 100.5q0 262 -134 262z" />
    <glyph glyph-name="one.tab" horiz-adv-x="547" 
d="M452 0h-394v77h157v470q-48 -28 -140 -35v66q47 8 92.5 29t73.5 51h61v-581h150v-77z" />
    <glyph glyph-name="two.tab" horiz-adv-x="547" 
d="M493 0h-436v5q0 147 198 297q84 63 109 95t25 84t-28.5 83.5t-85.5 31.5q-59 0 -89.5 -30t-41.5 -92h-86q9 88 64.5 142t152.5 54q103 0 154 -55t51 -132q0 -71 -32.5 -114t-131.5 -119q-133 -102 -155 -173h345z" />
    <glyph glyph-name="three.tab" horiz-adv-x="547" 
d="M148 501h-85q10 70 61 119.5t148 49.5q96 0 147 -49.5t51 -121.5q0 -55 -25.5 -89t-61.5 -47v-2q50 -16 82.5 -57t32.5 -109q0 -87 -57 -147t-171 -60q-104 0 -160 53.5t-65 128.5h87q11 -48 46.5 -78.5t95.5 -30.5q67 0 100.5 37.5t33.5 95.5q0 128 -143 128h-47v72h39
q65 0 94.5 25t29.5 77q0 46 -29 73t-83 27q-98 0 -121 -95z" />
    <glyph glyph-name="four.tab" horiz-adv-x="547" 
d="M429 0h-84v169h-309v80l299 409h94v-413h85l-9 -76h-76v-169zM345 245v166q0 73 2 159q-25 -49 -225 -325h223z" />
    <glyph glyph-name="five.tab" horiz-adv-x="547" 
d="M478 658l-13 -76h-275q-11 -99 -29 -188q48 53 138 53t144 -59t54 -160q0 -104 -57 -172t-170 -68q-89 0 -147.5 47t-71.5 130h89q12 -47 45.5 -75.5t87.5 -28.5q66 0 100 43t34 118q0 68 -30.5 109t-96.5 41q-56 0 -86 -21.5t-49 -64.5l-82 15q29 123 54 357h361z" />
    <glyph glyph-name="six.tab" horiz-adv-x="547" 
d="M487 515h-87q-23 83 -111 83q-145 0 -150 -243q53 92 167 92q93 0 147.5 -61t54.5 -158q0 -102 -58.5 -171t-163.5 -69q-235 0 -235 332q0 72 12.5 132t39.5 110.5t75.5 79t114.5 28.5q91 0 139 -47t55 -108zM285 62q67 0 99.5 45.5t32.5 113.5q0 65 -30 108.5t-99 43.5
q-63 0 -101 -39.5t-38 -111.5q0 -23 6.5 -48t20.5 -51.5t42.5 -43.5t66.5 -17z" />
    <glyph glyph-name="seven.tab" horiz-adv-x="547" 
d="M58 658h432v-72q-88 -117 -159.5 -280t-95.5 -306h-91q22 136 96.5 304t156.5 277h-339v77z" />
    <glyph glyph-name="eight.tab" horiz-adv-x="547" 
d="M269 -12q-98 0 -162.5 54t-64.5 144q0 64 35 107t85 62q-92 44 -92 139q0 79 54.5 127.5t153.5 48.5q91 0 145 -48.5t54 -125.5q0 -51 -24.5 -86t-66.5 -51q49 -16 83 -61.5t34 -108.5q0 -93 -65 -147t-169 -54zM273 61q64 0 102 33.5t38 95.5t-37 94.5t-103 32.5
q-69 0 -104.5 -35t-35.5 -92q0 -56 37.5 -92.5t102.5 -36.5zM275 597q-118 0 -118 -103q0 -44 30 -73t89 -29q114 0 114 99q0 46 -29.5 76t-85.5 30z" />
    <glyph glyph-name="nine.tab" horiz-adv-x="547" 
d="M60 144h90q29 -82 117 -82q133 0 142 256q-44 -78 -157 -78q-92 0 -147 58.5t-55 150.5q0 94 60 157.5t162 63.5q116 0 170.5 -82t54.5 -221q0 -378 -233 -378q-91 0 -140.5 44.5t-63.5 110.5zM270 596q-64 0 -96.5 -39.5t-32.5 -103.5t34 -102t92 -38q132 0 132 136
q0 15 -2.5 31t-10.5 38t-21 38.5t-38 28t-57 11.5z" />
    <glyph glyph-name="zero.slashcap" horiz-adv-x="591" 
d="M298 706q66 0 114.5 -30.5t75 -82.5t38.5 -111.5t12 -128.5t-11.5 -128.5t-37 -115.5t-75.5 -88.5t-119 -32.5q-67 0 -116.5 30.5t-76 83.5t-38.5 113.5t-12 132.5q0 69 13 129.5t40 113.5t76.5 84t116.5 31zM299 632q-156 0 -156 -284q0 -104 22 -173l227 412
q-37 45 -93 45zM295 62q43 0 74 24.5t47.5 67t24 91.5t7.5 107q0 107 -24 175l-228 -414q38 -51 99 -51z" />
    <glyph glyph-name="zero.cap" horiz-adv-x="591" 
d="M298 706q66 0 114.5 -30.5t75 -82.5t38.5 -111.5t12 -128.5t-11.5 -128.5t-37 -115.5t-75.5 -88.5t-119 -32.5q-67 0 -116.5 30.5t-76 83.5t-38.5 113.5t-12 132.5q0 69 13 129.5t40 113.5t76.5 84t116.5 31zM299 630q-153 0 -153 -282q0 -54 7 -101t22.5 -90t46 -68
t73.5 -25q149 0 149 288q0 278 -145 278z" />
    <glyph glyph-name="one.cap" horiz-adv-x="370" 
d="M274 0h-92v582q-22 -18 -69 -35t-78 -20v70q47 11 94.5 38.5t76.5 60.5h68v-696z" />
    <glyph glyph-name="two.cap" horiz-adv-x="555" 
d="M510 0h-464v7q0 166 212 320q91 67 112 89q31 36 31 89q0 55 -33.5 89.5t-91.5 34.5q-62 0 -94.5 -33t-43.5 -96h-91q9 90 67.5 147.5t161.5 57.5q109 0 163.5 -58t54.5 -138q0 -53 -18.5 -91.5t-52 -68.5t-106.5 -81q-141 -99 -166 -191h372z" />
    <glyph glyph-name="three.cap" horiz-adv-x="582" 
d="M152 525h-86q10 75 65 128t155 53q101 0 156 -51.5t55 -127.5q0 -104 -93 -143v-3q122 -41 122 -175q0 -91 -60 -155t-181 -63q-110 1 -169.5 58t-67.5 139h88q11 -54 48.5 -88t104.5 -34q72 0 108.5 39t36.5 102q0 137 -158 137h-38v73h34q134 0 134 107q0 50 -31.5 80
t-89.5 30q-107 0 -133 -106z" />
    <glyph glyph-name="four.cap" horiz-adv-x="569" 
d="M453 0h-86v184h-329v79l318 433h97v-437h91l-11 -75h-80v-184zM367 259v178q0 149 2 168q-12 -23 -56 -85.5t-103 -143.5t-84 -117h241z" />
    <glyph glyph-name="five.cap" horiz-adv-x="576" 
d="M509 696l-12 -78h-303q-16 -137 -27 -205q49 60 149 60q95 0 153.5 -63.5t58.5 -167.5q0 -114 -61.5 -184t-181.5 -70q-95 0 -157 50t-75 140h90q29 -115 145 -115q76 0 112.5 46t36.5 125q0 70 -34.5 116t-106.5 46q-63 0 -93 -24t-50 -67l-84 16q30 158 49 375h391z
" />
    <glyph glyph-name="six.cap" horiz-adv-x="580" 
d="M513 544h-89q-24 88 -120 89q-46 0 -78.5 -22t-49.5 -62t-25 -82.5t-9 -94.5q52 93 179 93q97 0 155.5 -63t58.5 -165q0 -106 -60.5 -177.5t-174.5 -71.5q-133 0 -190.5 91.5t-57.5 258.5q0 68 12 128t38.5 116.5t79 90t124.5 33.5q97 0 147 -48t60 -114zM300 63
q68 0 105.5 46.5t37.5 120.5q0 67 -34 113t-106 46q-70 0 -109.5 -39.5t-39.5 -114.5q0 -27 7 -54t22 -55t45.5 -45.5t71.5 -17.5z" />
    <glyph glyph-name="seven.cap" horiz-adv-x="503" 
d="M21 696h454v-73q-93 -127 -165 -292.5t-101 -330.5h-99q28 161 104 331t166 287h-359v78z" />
    <glyph glyph-name="eight.cap" horiz-adv-x="583" 
d="M287 -12q-105 0 -171.5 57.5t-66.5 153.5q0 125 120 176q-90 46 -90 147q0 81 59 132.5t159 51.5q94 0 151.5 -50.5t57.5 -131.5q0 -108 -94 -146q53 -18 87.5 -63.5t34.5 -112.5q0 -101 -69 -157.5t-178 -56.5zM292 62q69 0 110 36.5t41 103.5q0 64 -39.5 99t-111.5 35
q-78 0 -114.5 -36t-36.5 -97q0 -62 41.5 -101.5t109.5 -39.5zM293 632q-63 0 -95 -28.5t-32 -81.5q0 -50 33.5 -80.5t95.5 -30.5q60 0 91.5 28.5t31.5 79.5q0 52 -33 82.5t-92 30.5z" />
    <glyph glyph-name="nine.cap" horiz-adv-x="572" 
d="M57 154h91q29 -93 126 -93q48 0 80 26.5t47 74t20.5 87.5t7.5 93q-48 -84 -167 -84q-92 0 -153.5 59t-61.5 160q0 99 62 164t168 65q242 0 242 -322q0 -396 -249 -396q-179 0 -213 166zM278 633q-63 0 -101 -40t-38 -111q0 -69 38 -109.5t100 -40.5q140 0 140 140
q0 65 -32.5 113t-106.5 48z" />
    <glyph glyph-name="period.sups" horiz-adv-x="150" 
d="M110 428h-71v102h71v-102z" />
    <glyph glyph-name="comma.sups" horiz-adv-x="144" 
d="M74 355h-60q31 80 38 175h69q-11 -117 -47 -175z" />
    <glyph glyph-name="dollar.sups" horiz-adv-x="385" 
d="M220 365h-62v64q-57 7 -93 37t-43 78h72q7 -30 35.5 -47t64.5 -17q86 0 86 57q0 26 -20.5 41t-78.5 25q-81 15 -113.5 42t-32.5 72q0 42 31.5 73t91.5 37v47h62v-48q56 -8 87 -39t35 -68h-68q-14 56 -89 56q-42 0 -61.5 -14.5t-19.5 -35.5q0 -23 21 -34.5t78 -22.5
q149 -29 149 -122q0 -48 -33.5 -79.5t-98.5 -38.5v-63z" />
    <glyph glyph-name="cent.sups" horiz-adv-x="387" 
d="M289 568h68q-25 -89 -119 -103v-62h-62v62q-63 8 -100 50.5t-37 105.5q0 67 38 109t99 51v52h62v-52q56 -8 85 -39.5t33 -64.5h-68q-16 54 -84 54q-43 0 -69 -28.5t-26 -78.5q0 -47 26.5 -77.5t69.5 -30.5q62 0 84 52z" />
    <glyph glyph-name="hyphen.sups" horiz-adv-x="226" 
d="M31 656h164v-61h-164v61z" />
    <glyph glyph-name="period.subs" horiz-adv-x="150" 
d="M110 -173h-71v102h71v-102z" />
    <glyph glyph-name="comma.subs" horiz-adv-x="144" 
d="M74 -246h-60q31 80 38 175h69q-11 -117 -47 -175z" />
    <glyph glyph-name="dollar.subs" horiz-adv-x="385" 
d="M220 -236h-62v64q-57 7 -93 37t-43 78h72q7 -30 35.5 -47t64.5 -17q86 0 86 57q0 26 -20.5 41t-78.5 25q-81 15 -113.5 42t-32.5 72q0 42 31.5 73t91.5 37v47h62v-48q56 -8 87 -39t35 -68h-68q-14 56 -89 56q-42 0 -61.5 -14.5t-19.5 -35.5q0 -23 21 -34.5t78 -22.5
q149 -29 149 -122q0 -48 -33.5 -79.5t-98.5 -38.5v-63z" />
    <glyph glyph-name="cent.subs" horiz-adv-x="387" 
d="M289 -33h68q-25 -89 -119 -103v-62h-62v62q-63 8 -100 50.5t-37 105.5q0 67 38 109t99 51v52h62v-52q56 -8 85 -39.5t33 -64.5h-68q-16 54 -84 54q-43 0 -69 -28.5t-26 -78.5q0 -47 26.5 -77.5t69.5 -30.5q62 0 84 52z" />
    <glyph glyph-name="hyphen.subs" horiz-adv-x="226" 
d="M31 55h164v-61h-164v61z" />
    <glyph glyph-name="zero.numr" horiz-adv-x="388" 
d="M196 664q76 0 117 -54.5t41 -147.5q0 -99 -41.5 -152t-119.5 -53q-75 0 -116.5 55.5t-41.5 146.5q0 93 43.5 149t117.5 56zM194 604q-85 0 -85 -145q0 -70 23 -106t63 -36q86 0 86 144q0 143 -87 143z" />
    <glyph glyph-name="one.numr" horiz-adv-x="249" 
d="M179 261h-72v314q-15 -8 -42.5 -14.5t-41.5 -6.5v55q60 10 107 55h49v-403z" />
    <glyph glyph-name="two.numr" horiz-adv-x="362" 
d="M328 262h-291v5q0 106 131 186q51 31 65.5 47t14.5 41q0 29 -17 46.5t-50 17.5q-65 0 -77 -72h-69q6 60 46 95.5t103 35.5q71 0 105 -37.5t34 -82.5t-23.5 -71t-81.5 -60q-83 -49 -97 -92h218z" />
    <glyph glyph-name="three.numr" horiz-adv-x="372" 
d="M147 442v60h33q67 0 67 49q0 56 -68 56q-60 0 -76 -57h-65q2 16 9 33t22 36.5t44.5 31.5t68.5 12q66 0 101 -30.5t35 -77.5q0 -58 -57 -80q31 -9 52.5 -33.5t21.5 -61.5q0 -51 -37.5 -87t-115.5 -36q-42 0 -73 12.5t-47 33t-23.5 38t-9.5 35.5h69q6 -27 28.5 -45
t57.5 -18q37 0 57 18t20 47q0 64 -77 64h-37z" />
    <glyph glyph-name="four.numr" horiz-adv-x="368" 
d="M290 261h-67v103h-198v55l181 237h84v-236h61l-6 -56h-55v-103zM96 420h127v81q0 61 3 96q-1 -2 -130 -177z" />
    <glyph glyph-name="five.numr" horiz-adv-x="382" 
d="M330 658l-10 -60h-187q-2 -14 -5 -32.5t-6.5 -38.5t-4.5 -28q34 29 93 29q61 0 98 -35.5t37 -93.5q0 -63 -41.5 -102.5t-111.5 -39.5q-69 0 -109 34.5t-46 80.5h71q18 -58 84 -58q38 0 58.5 22t20.5 59q0 34 -19.5 55.5t-59.5 21.5q-57 0 -81 -41l-64 11q27 167 32 216
h251z" />
    <glyph glyph-name="six.numr" horiz-adv-x="379" 
d="M335 561h-66q-19 48 -71 48q-85 0 -93 -129q36 49 109 49q62 0 97.5 -36.5t35.5 -94.5q0 -61 -42 -101t-108 -40q-74 0 -118 50.5t-44 148.5q0 86 40.5 146.5t124.5 60.5q60 0 94.5 -30.5t40.5 -71.5zM195 312q35 0 58 20t23 62q0 39 -21 60.5t-61 21.5q-38 0 -60.5 -20
t-22.5 -51q0 -35 21 -64t63 -29z" />
    <glyph glyph-name="seven.numr" horiz-adv-x="344" 
d="M29 658h287v-54q-111 -135 -159 -342h-77q16 86 61.5 180t97.5 156h-210v60z" />
    <glyph glyph-name="eight.numr" horiz-adv-x="366" 
d="M181 257q-72 0 -111.5 34.5t-39.5 82.5q0 70 69 98q-52 27 -52 83q0 48 34.5 78.5t104.5 30.5q65 0 99 -31.5t34 -74.5q0 -60 -54 -82q71 -28 71 -99q0 -53 -43.5 -86.5t-111.5 -33.5zM183 309q41 0 61 18t20 48q0 71 -82 71q-80 0 -80 -68q0 -30 21 -49.5t60 -19.5z
M184 612q-33 0 -50.5 -15t-17.5 -40q0 -59 69 -59q64 0 64 58q0 56 -65 56z" />
    <glyph glyph-name="nine.numr" horiz-adv-x="371" 
d="M37 359h71q18 -48 70 -48q83 0 88 136q-33 -43 -103 -43q-59 0 -96 34.5t-37 90.5q0 57 41 96t109 39q74 0 115 -49t41 -145q0 -91 -38 -152.5t-120 -61.5q-64 0 -99 31t-42 72zM178 608q-34 0 -56 -18.5t-22 -58.5q0 -34 21 -54.5t60 -20.5q80 0 80 66q0 39 -21.5 62.5
t-61.5 23.5z" />
    <glyph glyph-name="parenleft.numr" horiz-adv-x="219" 
d="M118 708h68q-85 -119 -85 -255q0 -131 85 -252h-68q-31 39 -55.5 105.5t-24.5 146.5q0 149 80 255z" />
    <glyph glyph-name="parenright.numr" horiz-adv-x="219" 
d="M101 217h-68q85 119 85 254q0 131 -85 252h68q32 -38 56.5 -105t24.5 -147q0 -147 -81 -254z" />
    <glyph glyph-name="period.numr" horiz-adv-x="150" 
d="M110 261h-71v102h71v-102z" />
    <glyph glyph-name="comma.numr" horiz-adv-x="144" 
d="M74 188h-60q31 80 38 175h69q-11 -117 -47 -175z" />
    <glyph glyph-name="dollar.numr" horiz-adv-x="385" 
d="M220 198h-62v64q-57 7 -93 37t-43 78h72q7 -30 35.5 -47t64.5 -17q86 0 86 57q0 26 -20.5 41t-78.5 25q-81 15 -113.5 42t-32.5 72q0 42 31.5 73t91.5 37v47h62v-48q56 -8 87 -39t35 -68h-68q-14 56 -89 56q-42 0 -61.5 -14.5t-19.5 -35.5q0 -23 21 -34.5t78 -22.5
q149 -29 149 -122q0 -48 -33.5 -79.5t-98.5 -38.5v-63z" />
    <glyph glyph-name="cent.numr" horiz-adv-x="387" 
d="M289 401h68q-25 -89 -119 -103v-62h-62v62q-63 8 -100 50.5t-37 105.5q0 67 38 109t99 51v52h62v-52q56 -8 85 -39.5t33 -64.5h-68q-16 54 -84 54q-43 0 -69 -28.5t-26 -78.5q0 -47 26.5 -77.5t69.5 -30.5q62 0 84 52z" />
    <glyph glyph-name="hyphen.numr" horiz-adv-x="226" 
d="M31 489h164v-61h-164v61z" />
    <glyph glyph-name="zero.dnom" horiz-adv-x="388" 
d="M196 401q76 0 117 -54.5t41 -147.5q0 -99 -41.5 -152t-119.5 -53q-75 0 -116.5 55.5t-41.5 146.5q0 93 43.5 149t117.5 56zM194 341q-85 0 -85 -145q0 -70 23 -106t63 -36q86 0 86 144q0 143 -87 143z" />
    <glyph glyph-name="one.dnom" horiz-adv-x="249" 
d="M179 -2h-72v314q-15 -8 -42.5 -14.5t-41.5 -6.5v55q60 10 107 55h49v-403z" />
    <glyph glyph-name="two.dnom" horiz-adv-x="362" 
d="M328 -1h-291v5q0 106 131 186q51 31 65.5 47t14.5 41q0 29 -17 46.5t-50 17.5q-65 0 -77 -72h-69q6 60 46 95.5t103 35.5q71 0 105 -37.5t34 -82.5t-23.5 -71t-81.5 -60q-83 -49 -97 -92h218z" />
    <glyph glyph-name="three.dnom" horiz-adv-x="372" 
d="M147 179v60h33q67 0 67 49q0 56 -68 56q-60 0 -76 -57h-65q2 16 9 33t22 36.5t44.5 31.5t68.5 12q66 0 101 -30.5t35 -77.5q0 -58 -57 -80q31 -9 52.5 -33.5t21.5 -61.5q0 -51 -37.5 -87t-115.5 -36q-42 0 -73 12.5t-47 33t-23.5 38t-9.5 35.5h69q6 -27 28.5 -45
t57.5 -18q37 0 57 18t20 47q0 64 -77 64h-37z" />
    <glyph glyph-name="four.dnom" horiz-adv-x="368" 
d="M290 -2h-67v103h-198v55l181 237h84v-236h61l-6 -56h-55v-103zM96 157h127v81q0 62 3 96q-1 -2 -130 -177z" />
    <glyph glyph-name="five.dnom" horiz-adv-x="382" 
d="M330 395l-10 -60h-187q-2 -14 -5 -32.5t-6.5 -38.5t-4.5 -28q34 29 93 29q61 0 98 -35.5t37 -93.5q0 -63 -41.5 -102.5t-111.5 -39.5q-69 0 -109 34.5t-46 80.5h71q18 -58 84 -58q38 0 58.5 22t20.5 59q0 34 -19.5 55.5t-59.5 21.5q-57 0 -81 -41l-64 11q27 167 32 216
h251z" />
    <glyph glyph-name="six.dnom" horiz-adv-x="379" 
d="M335 298h-66q-19 48 -71 48q-85 0 -93 -129q36 49 109 49q62 0 97.5 -36.5t35.5 -94.5q0 -61 -42 -101t-108 -40q-74 0 -118 50.5t-44 148.5q0 86 40.5 146.5t124.5 60.5q60 0 94.5 -30.5t40.5 -71.5zM195 49q35 0 58 20t23 62q0 39 -21 60.5t-61 21.5q-38 0 -60.5 -20
t-22.5 -51q0 -35 21 -64t63 -29z" />
    <glyph glyph-name="seven.dnom" horiz-adv-x="344" 
d="M29 395h287v-54q-111 -135 -159 -342h-77q16 86 61.5 180t97.5 156h-210v60z" />
    <glyph glyph-name="eight.dnom" horiz-adv-x="366" 
d="M181 -6q-72 0 -111.5 34.5t-39.5 82.5q0 70 69 98q-52 27 -52 83q0 48 34.5 78.5t104.5 30.5q65 0 99 -31.5t34 -74.5q0 -60 -54 -82q71 -28 71 -99q0 -53 -43.5 -86.5t-111.5 -33.5zM183 46q41 0 61 18t20 48q0 71 -82 71q-80 0 -80 -68q0 -30 21 -49.5t60 -19.5z
M184 349q-33 0 -50.5 -15t-17.5 -40q0 -59 69 -59q64 0 64 58q0 56 -65 56z" />
    <glyph glyph-name="nine.dnom" horiz-adv-x="371" 
d="M37 96h71q18 -48 70 -48q83 0 88 136q-33 -43 -103 -43q-59 0 -96 34.5t-37 90.5q0 57 41 96t109 39q74 0 115 -49t41 -145q0 -91 -38 -152.5t-120 -61.5q-64 0 -99 31t-42 72zM178 345q-34 0 -56 -18.5t-22 -58.5q0 -34 21 -54.5t60 -20.5q80 0 80 66q0 39 -21.5 62.5
t-61.5 23.5z" />
    <glyph glyph-name="parenleft.dnom" horiz-adv-x="219" 
d="M118 445h68q-85 -119 -85 -255q0 -131 85 -252h-68q-31 39 -55.5 105.5t-24.5 146.5q0 149 80 255z" />
    <glyph glyph-name="parenright.dnom" horiz-adv-x="219" 
d="M101 -46h-68q85 119 85 254q0 131 -85 252h68q32 -38 56.5 -105t24.5 -147q0 -147 -81 -254z" />
    <glyph glyph-name="period.dnom" horiz-adv-x="150" 
d="M110 -2h-71v102h71v-102z" />
    <glyph glyph-name="comma.dnom" horiz-adv-x="144" 
d="M74 -75h-60q31 80 38 175h69q-11 -117 -47 -175z" />
    <glyph glyph-name="dollar.dnom" horiz-adv-x="385" 
d="M220 -65h-62v64q-57 7 -93 37t-43 78h72q7 -30 35.5 -47t64.5 -17q86 0 86 57q0 26 -20.5 41t-78.5 25q-81 15 -113.5 42t-32.5 72q0 42 31.5 73t91.5 37v47h62v-48q56 -8 87 -39t35 -68h-68q-14 56 -89 56q-42 0 -61.5 -14.5t-19.5 -35.5q0 -23 21 -34.5t78 -22.5
q149 -29 149 -122q0 -48 -33.5 -79.5t-98.5 -38.5v-63z" />
    <glyph glyph-name="cent.dnom" horiz-adv-x="387" 
d="M289 138h68q-25 -89 -119 -103v-62h-62v62q-63 8 -100 50.5t-37 105.5q0 67 38 109t99 51v52h62v-52q56 -8 85 -39.5t33 -64.5h-68q-16 54 -84 54q-43 0 -69 -28.5t-26 -78.5q0 -47 26.5 -77.5t69.5 -30.5q62 0 84 52z" />
    <glyph glyph-name="hyphen.dnom" horiz-adv-x="226" 
d="M31 226h164v-61h-164v61z" />
    <glyph glyph-name="a.sups" horiz-adv-x="352" 
d="M305 489v-155q0 -57 1 -74h-65q-1 7 -2 25t-1 21q-28 -50 -102 -50q-55 0 -84.5 29.5t-29.5 73.5q0 54 39.5 81t110.5 27h64v26q0 59 -65 59q-58 0 -66 -52h-67q12 102 136 102q131 0 131 -113zM238 410v9h-61q-85 0 -85 -53q0 -54 64 -54q41 0 61.5 26.5t20.5 71.5z" />
    <glyph glyph-name="b.sups" horiz-adv-x="384" 
d="M46 396v346h68v-194q28 54 106 54q56 0 96 -43.5t40 -120.5q0 -90 -42.5 -135.5t-103.5 -45.5q-66 0 -96 47q0 -29 -1 -42h-68q1 27 1 134zM286 436q0 52 -23 80.5t-62 28.5q-46 0 -67.5 -28t-21.5 -88q0 -115 84 -115q45 0 67.5 32t22.5 90z" />
    <glyph glyph-name="c.sups" horiz-adv-x="343" 
d="M260 367h64q-26 -111 -142 -111q-73 0 -114 47t-41 124q0 79 43.5 127t112.5 48q65 0 101 -35t41 -80h-68q-15 61 -75 61q-40 0 -62.5 -30t-22.5 -88q0 -51 22.5 -85.5t66.5 -34.5q55 0 74 57z" />
    <glyph glyph-name="d.sups" horiz-adv-x="389" 
d="M272 742h67v-391q0 -18 0.5 -48.5t0.5 -40.5h-63q-2 9 -2 50q-29 -56 -107 -56q-60 0 -100.5 44.5t-40.5 124.5q0 82 44 129.5t107 47.5q71 0 94 -38v178zM97 427q0 -53 24 -83.5t64 -30.5q43 0 66 26.5t23 92.5q0 65 -22 89t-64 24t-66.5 -31t-24.5 -87z" />
    <glyph glyph-name="e.sups" horiz-adv-x="355" 
d="M330 417h-234q0 -49 24 -77.5t65 -28.5q59 0 80 47h65q-30 -102 -147 -102q-79 0 -117.5 49.5t-38.5 120.5q0 76 42 126.5t115 50.5q76 0 112 -47t36 -109q0 -22 -2 -30zM97 462h167q0 40 -21 64.5t-60 24.5q-76 0 -86 -89z" />
    <glyph glyph-name="f.sups" horiz-adv-x="178" 
d="M119 262h-67v279h-50v54h50v34q0 54 26 87t78 33q15 0 37 -4v-56q-12 3 -29 3q-24 0 -34.5 -14t-10.5 -46v-37h66v-54h-66v-279z" />
    <glyph glyph-name="g.sups" horiz-adv-x="387" 
d="M336 499v-205q0 -174 -162 -174q-69 0 -103.5 31.5t-40.5 77.5h69q14 -55 78 -55q48 0 69.5 27t21.5 85v29q-27 -50 -101 -50q-60 0 -99.5 44.5t-39.5 118.5q0 75 41 123t104 49q77 2 100 -45q0 23 2 39h63q-2 -38 -2 -95zM98 431q0 -52 23.5 -80.5t63.5 -28.5
q85 0 85 114q0 62 -22 85t-64 23q-40 0 -63 -30.5t-23 -82.5z" />
    <glyph glyph-name="h.sups" horiz-adv-x="383" 
d="M46 262v480h68v-193q34 53 107 53q48 0 81.5 -31t33.5 -100v-209h-67v195q0 41 -15.5 64t-55.5 23q-39 0 -61.5 -27t-22.5 -76v-179h-68z" />
    <glyph glyph-name="i.sups" horiz-adv-x="161" 
d="M114 262h-68v333h68v-333zM114 669h-68v73h68v-73z" />
    <glyph glyph-name="j.sups" horiz-adv-x="164" 
d="M-3 120v58h3q29 0 40 18t11 56v343h67v-336q0 -68 -25 -103.5t-85 -35.5h-11zM118 669h-68v73h68v-73z" />
    <glyph glyph-name="k.sups" horiz-adv-x="347" 
d="M113 742v-301q16 18 70 75.5t72 78.5h78q-41 -42 -124 -129l137 -204h-79l-106 165q-24 -24 -48 -46v-119h-67v480h67z" />
    <glyph glyph-name="l.sups" horiz-adv-x="160" 
d="M114 262h-68v480h68v-480z" />
    <glyph glyph-name="m.sups" horiz-adv-x="579" 
d="M533 262h-66v202q0 33 -15.5 56.5t-49.5 23.5q-78 0 -78 -97v-185h-69v208q0 74 -64 74q-38 0 -57.5 -27t-19.5 -74v-181h-68v227q0 35 -0.5 68t-0.5 38h66q3 -15 3 -49q29 56 101 56q73 0 95 -59q37 59 109 59q49 0 81.5 -30.5t32.5 -97.5v-212z" />
    <glyph glyph-name="o.sups" horiz-adv-x="377" 
d="M191 602q73 0 116 -47t43 -126q0 -83 -45.5 -128t-118.5 -45q-71 0 -115 47t-44 125q0 80 46 127t118 47zM188 548q-43 0 -67 -31.5t-24 -87.5q0 -54 24.5 -86.5t66.5 -32.5q92 0 92 119q-1 56 -24 87.5t-68 31.5z" />
    <glyph glyph-name="p.sups" horiz-adv-x="383" 
d="M114 131h-68v369q0 53 -2 95h66q0 -1 1 -21t1 -30q34 58 108 58q57 0 96.5 -45t39.5 -121q0 -87 -43.5 -133t-105.5 -46q-63 0 -93 45v-171zM286 434q0 55 -23 82.5t-64 27.5q-47 0 -67 -28.5t-20 -86.5q0 -115 84 -115q90 0 90 120z" />
    <glyph glyph-name="q.sups" horiz-adv-x="385" 
d="M271 131v175q-29 -50 -105 -50q-58 0 -98.5 45t-40.5 125q0 83 45.5 129.5t105.5 46.5q39 0 63.5 -14t33.5 -33q-1 8 2 40h63q-2 -46 -2 -134v-330h-67zM97 428q0 -53 23.5 -84t64.5 -31q87 0 87 117q0 66 -20.5 90t-63.5 24q-42 0 -66.5 -30.5t-24.5 -85.5z" />
    <glyph glyph-name="r.sups" horiz-adv-x="241" 
d="M46 262v221q0 31 -0.5 70.5t-0.5 41.5h65q2 -18 2 -63q40 72 117 70v-69q-57 -1 -86 -30t-29 -91v-150h-68z" />
    <glyph glyph-name="s.sups" horiz-adv-x="318" 
d="M24 361h65q14 -53 71 -53q65 0 65 43q0 22 -16.5 33.5t-61.5 22.5q-65 16 -88.5 40.5t-23.5 60.5q0 40 32 67.5t89 27.5q59 0 92 -28.5t36 -70.5h-60q-11 49 -69 49q-55 0 -55 -39q0 -18 13 -28.5t55 -20.5q70 -17 97 -42t27 -66q0 -46 -35.5 -73.5t-96.5 -27.5
q-58 0 -94.5 29t-41.5 76z" />
    <glyph glyph-name="t.sups" horiz-adv-x="198" 
d="M-4 595h56v95h67v-95h71v-54h-71v-184q0 -23 8 -33t31 -10q15 0 30 3v-53q-16 -7 -52 -7q-44 0 -64 20.5t-20 67.5v196h-56v54z" />
    <glyph glyph-name="u.sups" horiz-adv-x="380" 
d="M333 595v-235q0 -64 2 -98h-63q-4 9 -4 53q-32 -58 -107 -58q-53 0 -84 31t-31 96v211h68v-197q0 -82 67 -82q36 0 60 25t24 76v178h68z" />
    <glyph glyph-name="v.sups" horiz-adv-x="341" 
d="M9 595h74q75 -219 88 -279h1q6 24 24.5 79t41 120.5t27.5 79.5h69l-122 -333h-84z" />
    <glyph glyph-name="w.sups" horiz-adv-x="518" 
d="M10 595h74q59 -226 67 -265h1q8 37 75 265h68q66 -226 72 -265h1q4 24 70 265h70l-104 -333h-74q-17 67 -43 156t-29 100h-1q-7 -32 -75 -256h-75z" />
    <glyph glyph-name="x.sups" horiz-adv-x="300" 
d="M-6 595h81q23 -37 48.5 -75t29.5 -45h1q34 55 77 120h75l-116 -160l118 -173h-79q-17 27 -36 56.5t-29.5 46t-15.5 25.5h-1q-18 -32 -80 -128h-75l118 168z" />
    <glyph glyph-name="y.sups" horiz-adv-x="335" 
d="M4 595h77q81 -212 93 -260h1q5 20 86 260h72l-128 -345q-26 -72 -57.5 -99t-79.5 -27q-25 0 -36 1v61q9 -1 27 -1q27 0 45.5 17.5t35.5 60.5z" />
    <glyph glyph-name="z.sups" horiz-adv-x="302" 
d="M16 262v50q9 10 42.5 50.5t79.5 96t66 79.5h-180v57h263v-47q-16 -21 -88 -108.5t-102 -120.5h198l-10 -57h-269z" />
    <glyph glyph-name="egrave.sups" horiz-adv-x="355" 
d="M59 737h86l82 -98h-66zM330 417h-234q0 -49 24 -77.5t65 -28.5q59 0 80 47h65q-30 -102 -147 -102q-79 0 -117.5 49.5t-38.5 120.5q0 76 42 126.5t115 50.5q76 0 112 -47t36 -109q0 -22 -2 -30zM97 462h167q0 40 -21 64.5t-60 24.5q-76 0 -86 -89z" />
    <glyph glyph-name="eacute.sups" horiz-adv-x="355" 
d="M228 735h86l-108 -96h-68zM330 417h-234q0 -49 24 -77.5t65 -28.5q59 0 80 47h65q-30 -102 -147 -102q-79 0 -117.5 49.5t-38.5 120.5q0 76 42 126.5t115 50.5q76 0 112 -47t36 -109q0 -22 -2 -30zM97 462h167q0 40 -21 64.5t-60 24.5q-76 0 -86 -89z" />
    <glyph glyph-name="dong.alt" horiz-adv-x="534" 
d="M370 667h84v-71h63v-64h-63v-390q0 -103 1 -142h-80q-5 32 -5 68q-43 -77 -147 -77q-83 0 -138.5 62t-55.5 170q0 110 60 173.5t147 63.5q96 0 134 -59v131h-227v64h227v71zM116 224q0 -76 35.5 -118.5t94.5 -42.5q56 0 92 39.5t36 132.5q0 80 -34 117t-91 37
q-65 0 -99 -44.5t-34 -120.5z" />
    <glyph glyph-name="currency.tab" horiz-adv-x="547" 
d="M271 551q69 0 120 -39l68 71l50 -52l-69 -73q29 -52 29 -116q0 -68 -30 -119l70 -72l-50 -54l-68 70q-51 -39 -122 -39q-69 0 -119 39l-66 -70l-51 54l69 70q-31 51 -31 120q0 66 32 118l-70 72l51 52l68 -71q50 38 119 39zM270 481q-59 0 -91.5 -38.5t-32.5 -100.5
q0 -71 36.5 -108.5t87.5 -37.5q56 0 89.5 36t33.5 109q0 63 -31.5 101.5t-91.5 38.5z" />
    <glyph glyph-name="dollar.tab" horiz-adv-x="547" 
d="M139 499q0 -38 21.5 -62.5t76.5 -43.5v203q-51 -4 -74.5 -31t-23.5 -66zM400 170q0 42 -23 70t-83 49v-226q106 11 106 107zM294 -97h-57v91q-88 7 -140 55t-60 122h88q10 -45 39.5 -72.5t72.5 -34.5v242q-100 30 -142.5 72t-42.5 111q0 75 51.5 122.5t133.5 52.5v68h57
v-69q90 -9 133 -56.5t49 -104.5h-86q-21 78 -96 92v-218q110 -32 153.5 -79t43.5 -118q0 -82 -52 -130t-145 -55v-91z" />
    <glyph glyph-name="sterling.tab" horiz-adv-x="547" 
d="M495 0h-450v71q78 41 78 201v30h-91v69h88q-2 46 -2 80q0 100 46.5 159t139.5 59q46 0 81.5 -15t55.5 -40t30.5 -52t12.5 -57h-85q-15 89 -97 89q-54 0 -75 -34t-21 -102q0 -33 2 -87h151v-69h-149v-25q0 -136 -53 -199h350z" />
    <glyph glyph-name="yen.tab" horiz-adv-x="547" 
d="M447 167h-132v-167h-89v167h-130v61h130v63h-130v61h116l-181 306h101q128 -228 143 -264h1q9 20 145 264h93l-185 -306h118v-61h-132v-63h132v-61z" />
    <glyph glyph-name="Euro.tab" horiz-adv-x="547" 
d="M415 156h86q-19 -80 -71 -123.5t-129 -43.5q-97 0 -152.5 67t-69.5 189h-62v60h58v23q0 26 1 39h-59v60h65q18 116 76.5 179t147.5 63q88 0 137 -49.5t58 -115.5h-86q-26 91 -112 91q-112 0 -134 -168h185v-60h-190q-1 -11 -1 -36v-26h191v-60h-186q21 -180 135 -180
q81 0 112 91z" />
    <glyph glyph-name="cent.tab" horiz-adv-x="547" 
d="M417 232h87q-14 -63 -62 -104t-124 -48v-91h-58v92q-92 10 -146 76.5t-54 168.5q0 98 53 166.5t147 80.5v70h58v-69q47 -3 83.5 -19.5t57 -40.5t32 -47t13.5 -45h-87q-23 70 -99 80v-350q74 10 99 80zM150 329q0 -67 28 -115t82 -60v346q-110 -21 -110 -171z" />
    <glyph glyph-name="florin.tab" horiz-adv-x="547" 
d="M516 679l-18 -70q-22 13 -55 13q-44 0 -64.5 -36.5t-30.5 -101.5l-12 -74h119v-70h-129l-37 -235q-17 -109 -53.5 -165.5t-114.5 -56.5q-60 0 -92 20l19 71q24 -14 66 -14q39 0 55.5 32.5t30.5 116.5l37 231h-97v70h109l9 58q7 46 17.5 81t30 71.5t53 56.5t78.5 20
q56 0 79 -18z" />
    <glyph glyph-name="colonmonetary.tab" horiz-adv-x="547" 
d="M279 67q12 0 17 1v525h-12q-16 0 -30 -3v-521q16 -2 25 -2zM132 327q0 -179 72 -236v477q-72 -55 -72 -241zM254 -96h-50v99q-78 28 -120 112t-42 210q0 132 41.5 215t120.5 112v79h50v-67q22 2 35 2h7v65h50v-71q66 -15 102.5 -61t43.5 -103h-87q-17 64 -59 84v-499
q38 19 61 77h87q-32 -131 -148 -159v-94h-50v86h-17q-17 0 -25 1v-88z" />
    <glyph glyph-name="lira.tab" horiz-adv-x="547" 
d="M495 0h-450v71q41 18 57.5 59t18.5 107h-90v56h91q-1 17 -3 68h-88v57h86v28q0 223 188 223q88 0 131.5 -49t49.5 -111h-85q-14 86 -99 86q-53 0 -75 -35t-22 -106v-36h151v-57h-149q0 -9 0.5 -31.5t0.5 -36.5h148v-56h-149q-5 -110 -49 -159h349z" />
    <glyph glyph-name="franc.tab" horiz-adv-x="547" 
d="M122 0v138h-86v66h86v454h366v-77h-277v-198h258v-76h-258v-103h130v-66h-130v-138h-89z" />
    <glyph glyph-name="uni20A6.tab" horiz-adv-x="547" 
d="M133 585q4 -46 6 -150h53l-54 150h-5zM383 88h6q-5 67 -7 159h-56zM139 0h-72v247h-50v57h50v73h-50v58h50v223h111l80 -223h123v223h70v-223h52v-58h-52v-73h52v-57h-52v-247h-104l-88 247h-120v-247zM381 304v73h-102l26 -73h76zM238 304l-26 73h-73v-73h99z" />
    <glyph glyph-name="peseta.tab" horiz-adv-x="547" 
d="M69 0v418h-63v61h63v179h167q94 0 156 -46.5t71 -132.5h50v-61h-50q-10 -86 -72 -133.5t-162 -47.5h-76v-237h-84zM153 589v-110h224q-17 110 -146 110h-78zM153 307h74q135 0 150 111h-224v-111z" />
    <glyph glyph-name="dong.tab" horiz-adv-x="547" 
d="M49 -76h409v-65h-409v65zM367 667h84v-71h63v-64h-63v-390q0 -103 1 -142h-80q-5 32 -5 68q-43 -77 -147 -77q-83 0 -138.5 62t-55.5 170q0 110 60 173.5t147 63.5q96 0 134 -59v131h-227v64h227v71zM113 224q0 -76 35.5 -118.5t94.5 -42.5q56 0 92 39.5t36 132.5
q0 80 -34 117t-91 37q-65 0 -99 -44.5t-34 -120.5z" />
    <glyph glyph-name="dong.alttab" horiz-adv-x="547" 
d="M367 667h84v-71h63v-64h-63v-390q0 -103 1 -142h-80q-5 32 -5 68q-43 -77 -147 -77q-83 0 -138.5 62t-55.5 170q0 110 60 173.5t147 63.5q96 0 134 -59v131h-227v64h227v71zM113 224q0 -76 35.5 -118.5t94.5 -42.5q56 0 92 39.5t36 132.5q0 80 -34 117t-91 37
q-65 0 -99 -44.5t-34 -120.5z" />
    <glyph glyph-name="uni20B1.tab" horiz-adv-x="547" 
d="M62 0v365h-59v54h59v51h-59v53h59v135h175q81 0 139 -34.5t79 -100.5h55v-53h-44q1 -8 1 -26q0 -17 -1 -25h44v-54h-55q-24 -68 -84.5 -104t-145.5 -36h-79v-225h-84zM146 592v-69h222q-34 69 -132 69h-90zM384 443q0 11 -2 27h-236v-51h237q1 7 1 24zM146 292h79
q108 0 144 73h-223v-73z" />
    </font>
</defs>
</svg>
