<svg xmlns="http://www.w3.org/2000/svg">
<defs>
<font id="Louize" horiz-adv-x="1085" >
  <font-face 
    font-family="Louize"
    font-weight="400"
    font-stretch="normal"
    units-per-em="2048"
    panose-1="2 10 5 2 5 0 0 2 0 3"
    ascent="1505"
    descent="-543"
    x-height="887"
    cap-height="1440"
    bbox="-319 -606 2812 2146"
    underline-thickness="92"
    underline-position="-664"
    unicode-range="U+000D-FB06"
  />
<missing-glyph horiz-adv-x="1206" 
d="M20 393v672l582 336l584 -336v-672l-584 -336zM131 782q0 -42 31.5 -71t68.5 -29q27 0 48 12l8 6l-41 -143l14 -27l182 105l-16 31l-139 -82l41 141q10 33 10 61q0 44 -29.5 72.5t-68.5 28.5q-45 0 -77 -32t-32 -73zM166 782q0 28 21 50t51 22q38 0 59 -35q8 -13 8 -33
q0 -28 -21 -49.5t-51 -21.5q-26 0 -46.5 19t-20.5 48zM463 778q0 -70 55 -142.5t117 -72.5q24 0 51 15q51 32 51 94q0 70 -54.5 142.5t-115.5 72.5q-48 0 -76 -33.5t-28 -75.5zM471 1133h47v-138h17v138h49v16h-113v-16zM498 780q0 45 34 64q13 8 33 8q26 0 53 -21l-59 -188
q-27 27 -44 66.5t-17 70.5zM518 350q0 -35 23.5 -59.5t58.5 -24.5q34 0 58 24.5t24 59.5q0 34 -24 58t-58 24q-35 0 -58.5 -24t-23.5 -58zM537 350q0 27 18 45.5t45 18.5q26 0 44 -19t18 -45q0 -28 -18 -46.5t-44 -18.5q-28 0 -45.5 18.5t-17.5 46.5zM571 313h17v25h14
l16 -25h17l-19 27q17 7 17 25q0 11 -7.5 17.5t-19.5 6.5h-35v-76zM586 618l57 189q26 -32 42.5 -70.5t16.5 -66.5q0 -29 -18 -50.5t-47 -21.5q-28 0 -51 20zM588 350v27h14q16 0 16 -12q0 -15 -16 -15h-14zM631 995h16v70h74v16h-74v52h80v16h-96v-154zM764 819l96 -168
l29 17q0 2 -1 5t-1 5q0 25 21 47.5t55 22.5q29 0 51 -21t22 -53t-26.5 -57t-61.5 -25q-23 0 -41 12l-10 -35q23 -10 51 -10q35 0 62 16q61 35 61 97q0 50 -33 80t-71 30q-36 0 -64.5 -20.5t-38.5 -48.5l-53 94l129 76l-16 28z" />
    <glyph glyph-name="asterisks" unicode="&#x2a;&#x2a;&#x2a;" horiz-adv-x="2048" 
d="M147 385q0 25 21 44.5t51 19.5q45 0 107 -43q62 -42 151 -84q-7 49 -19 109t-12 61q-14 72 -14 88q0 34 19.5 58t50.5 24q30 0 48.5 -24t18.5 -58q0 -14 -14 -86q-19 -88 -31 -172q99 47 154 84q62 43 104 43q30 0 51 -19.5t21 -44.5q0 -53 -59 -70q-23 -6 -90 -14
q-8 -1 -64 -7.5t-104 -14.5q81 -84 125 -123q81 -71 81 -113q0 -27 -16.5 -46.5t-42.5 -19.5q-45 0 -68 39q-15 25 -51 101.5t-65 132.5q-26 -51 -62 -130t-51 -104q-23 -39 -68 -39q-27 0 -43 18t-16 44q0 25 19.5 51.5t62.5 65.5q47 41 123 123q-84 15 -170 22
q-80 9 -92 12q-25 8 -40.5 27t-15.5 45zM672 1260q0 25 20.5 44t50.5 19q45 0 107 -43q62 -42 151 -84q-1 7 -30 170q-2 8 -6.5 28t-6.5 33.5t-2 26.5q0 34 19.5 58t50.5 24q30 0 49 -24.5t19 -57.5q0 -13 -2 -26.5t-6.5 -32t-6.5 -27.5q-15 -73 -30 -172q95 45 153 84
q62 43 105 43q30 0 50.5 -19t20.5 -44q0 -53 -59 -70q-23 -6 -90 -14q-5 -1 -62 -8t-106 -15q81 -84 125 -123q82 -72 82 -112q0 -27 -17 -46.5t-43 -19.5q-44 0 -67 39q-15 25 -52 102t-65 131q-26 -51 -61.5 -129.5t-51.5 -103.5q-23 -39 -67 -39q-27 0 -43.5 17.5
t-16.5 43.5q0 25 19.5 51.5t62.5 65.5q47 41 123 123q-95 17 -170 23q-80 9 -92 12q-25 8 -40 27t-15 45zM1194 385q0 25 21 44.5t51 19.5q44 0 106 -43q60 -41 152 -84q-7 49 -19 109t-12 61q-14 72 -14 88q0 34 19 58t50 24q30 0 49 -24.5t19 -57.5q0 -14 -14 -86
q-19 -88 -31 -172q95 45 153 84q62 43 105 43q30 0 51 -19.5t21 -44.5q0 -26 -16.5 -44t-43.5 -26q-23 -6 -90 -14q-8 -1 -64 -7.5t-104 -14.5q81 -84 125 -123q82 -72 82 -113q0 -27 -16.5 -46.5t-42.5 -19.5q-45 0 -68 39q-15 25 -51.5 102t-65.5 132q-27 -53 -62 -131
t-50 -103q-23 -39 -68 -39q-27 0 -43 18t-16 44q0 25 19.5 51.5t62.5 65.5q42 37 122 123q-84 15 -170 22q-80 9 -92 12q-25 8 -40 27t-15 45z" />
    <glyph glyph-name="f_f" unicode="ff" horiz-adv-x="1128" 
d="M88 856q25 8 43.5 22.5t29 30.5t18.5 43t12 47.5t9.5 56.5t10.5 58q39 191 137.5 304.5t237.5 113.5q86 0 137 -39t51 -94q0 -35 -20.5 -56.5t-51.5 -21.5q-29 0 -48.5 13t-41.5 42q-23 28 -41 38.5t-49 10.5q-186 0 -186 -385v-153h291q25 0 43.5 3.5t31.5 15.5
t20.5 21.5t14.5 34t10 41t9.5 54t11.5 61.5q37 188 134 301t249 113q91 0 155 -46.5t64 -115.5q0 -36 -22 -60t-56 -24q-32 0 -56.5 19t-49.5 61q-19 31 -41.5 45t-57.5 14q-87 0 -140.5 -90t-53.5 -295v-153q135 3 223 8l17 -35l-17 -76h-223v-389q0 -46 1 -93t2 -76.5
t1 -32.5q0 -63 24.5 -94t90.5 -54l-6 -47q-108 6 -185 6q-56 0 -164 -6l-6 47q55 22 72 51.5t22 96.5q5 76 5 198v219q0 51 -2.5 78.5t-8.5 49.5t-21 30.5t-34.5 12t-54.5 3.5h-293v-395q0 -45 1 -90.5t2 -74t1 -31.5q0 -63 24.5 -94t90.5 -54l-6 -47q-108 6 -185 6
q-56 0 -164 -6l-6 47q55 22 72 51.5t22 96.5q5 76 5 198v303q0 58 -16.5 81.5t-80.5 37.5z" />
    <glyph glyph-name="fi" unicode="fi" horiz-adv-x="1091" 
d="M88 856q30 9 49.5 26t30 44.5t16 52t12.5 66.5t13 69q101 418 422 418q113 0 188.5 -51t75.5 -127q0 -41 -24.5 -67.5t-67.5 -26.5q-74 0 -121 86q-42 79 -117 79q-104 0 -166.5 -89.5t-62.5 -295.5v-153h315q129 0 217 51l43 -16q-10 -174 -10 -371v-154q0 -82 4 -204
q2 -65 20 -95t74 -53l-6 -47q-108 6 -164 6q-55 0 -163 -6l-7 47q55 22 72.5 52t22.5 96q4 61 4 204v78q0 132 -4 193q-3 46 -15 68.5t-45.5 35t-99.5 12.5h-258v-401q0 -108 4 -190q3 -64 26.5 -94.5t88.5 -53.5l-6 -47q-72 6 -185 6q-92 0 -164 -6l-6 47q54 22 70.5 51.5
t21.5 96.5q7 73 7 198v303q0 58 -16.5 81.5t-80.5 37.5z" />
    <glyph glyph-name="fl" unicode="fl" horiz-adv-x="1091" 
d="M88 856q30 9 49.5 26t30 44.5t16 52t12.5 66.5t13 69q45 197 149 307.5t273 110.5q102 0 164 -47q35 24 73 55l43 -16q-10 -174 -10 -371v-756q0 -143 4 -204q0 -64 19 -94.5t75 -53.5l-6 -47q-108 6 -164 6q-55 0 -163 -6l-7 47q55 22 72.5 52t22.5 96q4 61 4 204v647
q0 130 -4 191q-12 190 -189 190q-103 0 -166 -90t-63 -295v-153q135 3 223 8l16 -35l-16 -76h-223v-401q0 -108 4 -190q3 -64 26.5 -94.5t88.5 -53.5l-6 -47q-72 6 -185 6q-92 0 -164 -6l-6 47q54 22 70.5 51.5t21.5 96.5q7 73 7 198v303q0 58 -16.5 81.5t-80.5 37.5z" />
    <glyph glyph-name="f_f_i" unicode="ffi" horiz-adv-x="1648" 
d="M88 856q25 8 43.5 22.5t29 30.5t18.5 43t12 47.5t9.5 56.5t10.5 58q39 191 137.5 304.5t237.5 113.5q86 0 137 -39t51 -94q0 -35 -20.5 -56.5t-51.5 -21.5q-29 0 -48.5 13t-41.5 42q-23 28 -41 38.5t-49 10.5q-186 0 -186 -385v-153h291q25 0 43 4t31 15t20.5 21.5
t14 33.5t10 41.5t10 54t12.5 61.5q46 197 146.5 305.5t273.5 108.5q113 0 188.5 -51t75.5 -127q0 -41 -24.5 -67.5t-67.5 -26.5q-74 0 -121 86q-42 79 -117 79q-104 0 -166.5 -89.5t-62.5 -295.5v-153q107 0 315 4q78 2 126 12t91 35l43 -16q-10 -174 -10 -371v-154
q0 -143 4 -204q5 -67 22 -96.5t72 -51.5l-6 -47q-108 6 -164 6q-55 0 -163 -6l-6 47q55 22 72 51.5t22 96.5q4 61 4 204v78q0 132 -4 193q-3 46 -15 68.5t-45.5 35t-99.5 12.5h-258v-393q0 -88 4 -198q3 -64 26.5 -94.5t88.5 -53.5l-6 -47q-108 6 -185 6q-56 0 -164 -6
l-6 47q55 22 72 51.5t22 96.5q5 76 5 198v219q0 51 -2.5 78.5t-8.5 49.5t-21 30.5t-34.5 12t-54.5 3.5h-293v-393q0 -124 4 -198q3 -64 26.5 -94.5t88.5 -53.5l-6 -47q-108 6 -185 6q-56 0 -164 -6l-6 47q55 22 72 51.5t22 96.5q5 76 5 198v303q0 58 -16.5 81.5t-80.5 37.5z
" />
    <glyph glyph-name="f_f_l" unicode="ffl" horiz-adv-x="1648" 
d="M88 856q25 8 43.5 22.5t29 30.5t18.5 43t12 47.5t9.5 56.5t10.5 58q39 191 137.5 304.5t237.5 113.5q86 0 137 -39t51 -94q0 -35 -20.5 -56.5t-51.5 -21.5q-29 0 -48.5 13t-41.5 42q-23 28 -41 38.5t-49 10.5q-184 0 -184 -385v-153h289q25 0 43 4t31 15t20.5 21.5
t14 33.5t10 41.5t10 54t12.5 61.5q92 414 420 414q102 0 164 -47q35 24 73 55l43 -16q-10 -174 -10 -371v-756q0 -143 4 -204q0 -64 19 -94.5t75 -53.5l-6 -47q-108 6 -164 6q-55 0 -163 -6l-6 47q55 22 72 51.5t22 96.5q4 61 4 204v647q0 130 -4 191q-12 190 -189 190
q-103 0 -166 -90t-63 -295v-153q135 3 223 8l17 -35l-17 -76h-223v-387q0 -47 1 -94.5t2 -77t1 -32.5q0 -63 24.5 -94t90.5 -54l-6 -47q-108 6 -185 6q-56 0 -164 -6l-6 47q55 22 72 51.5t22 96.5q5 76 5 198v219q0 51 -2.5 78.5t-8.5 49.5t-21 30.5t-34.5 12t-54.5 3.5
h-291v-395q0 -45 0.5 -90.5t1 -74t0.5 -31.5q0 -63 24.5 -94t90.5 -54l-6 -47q-108 6 -185 6q-56 0 -164 -6l-6 47q55 22 72 51.5t22 96.5q5 76 5 198v303q0 58 -16.5 81.5t-80.5 37.5z" />
    <glyph glyph-name="longsl" unicode="&#x17f;i" horiz-adv-x="1091" 
d="M88 856q30 9 49.5 26t30 44.5t16 52t12.5 66.5t13 69q45 197 149 307.5t273 110.5q102 0 164 -47q35 24 73 55l43 -16q-10 -174 -10 -371v-756q0 -143 4 -204q0 -64 19 -94.5t75 -53.5l-6 -47q-108 6 -164 6q-55 0 -163 -6l-7 47q55 22 72.5 52t22.5 96q4 61 4 204v647
q0 130 -4 191q-12 190 -189 190q-49 0 -88 -19.5t-71 -62.5t-50 -120t-18 -183v-649q0 -76 4 -198q2 -64 25 -94.5t88 -53.5l-6 -47q-108 6 -185 6q-56 0 -164 -6l-6 47q55 22 72 51.5t22 96.5q5 76 5 198v303q0 58 -16.5 81.5t-80.5 37.5z" />
    <glyph glyph-name="flslash" unicode="f&#x142;" horiz-adv-x="1134" 
d="M88 856q30 9 49.5 26t30 44.5t16 52t12.5 66.5t13 69q45 197 150.5 307.5t279.5 110.5q110 0 172 -47q42 29 74 55l43 -16q-10 -174 -10 -371v-393l190 112l47 -79l-237 -140v-256q0 -143 4 -204q0 -64 19 -94.5t75 -53.5l-6 -47q-108 6 -164 6t-164 -6l-6 47
q55 22 72 51.5t22 96.5q4 61 4 204v172l-178 -104l-45 80l223 131v368q0 130 -4 191q-12 190 -197 190q-51 0 -92 -19.5t-74.5 -62.5t-52 -120t-18.5 -183v-153q135 3 223 8l16 -35l-16 -76h-223v-401q0 -108 4 -190q3 -64 26.5 -94.5t88.5 -53.5l-6 -47q-72 6 -185 6
q-92 0 -164 -6l-6 47q54 22 70.5 51.5t21.5 96.5q7 73 7 198v303q0 58 -16.5 81.5t-80.5 37.5z" />
    <glyph glyph-name="fthorn" unicode="f&#xfe;" horiz-adv-x="1648" 
d="M88 856q30 9 49.5 26t30 44.5t16 52t12.5 66.5t13 69q45 197 149 307.5t273 110.5q102 0 164 -47q35 24 73 55l43 -16q-10 -174 -10 -371l-2 -403l2 -2q42 80 117 133t160 53q157 0 271 -131.5t114 -343.5q0 -108 -34.5 -201t-91.5 -156t-132.5 -99t-157.5 -36
q-154 0 -246 74q0 -321 4 -387q0 -63 24.5 -94t90.5 -54l-6 -47q-108 6 -185 6q-55 0 -163 -6l-7 47q55 22 72.5 52t22.5 96q4 61 4 199v1191q0 130 -4 191q-12 190 -189 190q-49 0 -88 -19.5t-71 -62.5t-50 -120t-18 -183v-153q131 3 221 8l16 -35l-16 -76h-223v-401
q0 -108 4 -190q3 -64 26.5 -94.5t88.5 -53.5l-6 -47q-72 6 -185 6q-92 0 -164 -6l-6 47q54 22 70.5 51.5t21.5 96.5q7 73 7 198v303q0 58 -16.5 81.5t-80.5 37.5zM901 332q0 -131 70 -203t182 -72q115 0 187.5 87t72.5 251q0 190 -80 297t-200 107q-107 0 -169.5 -63
t-62.5 -163v-241z" />
    <glyph glyph-name="f_b" unicode="fb" horiz-adv-x="1642" 
d="M88 856q30 9 49.5 26t30 44.5t16 52t12.5 66.5t13 69q45 197 149 307.5t273 110.5q102 0 164 -47q35 24 73 55l43 -16q-10 -174 -10 -371v-412l2 -2q41 87 117 141t168 54q157 0 262.5 -125.5t105.5 -319.5q0 -113 -36.5 -211.5t-98.5 -166t-146 -106t-177 -38.5
q-95 0 -189.5 22.5t-150.5 59.5v995q0 130 -4 191q-12 190 -189 190q-49 0 -88 -19.5t-71 -62.5t-50 -120t-18 -183v-153q131 3 221 8l16 -35l-16 -76h-223v-401q0 -108 4 -190q3 -64 26.5 -94.5t88.5 -53.5l-6 -47q-72 6 -185 6q-92 0 -164 -6l-6 47q54 22 70.5 51.5
t21.5 96.5q7 73 7 198v303q0 58 -16.5 81.5t-80.5 37.5zM901 281q0 -220 211 -220q135 0 213 102.5t78 270.5q0 167 -71.5 266t-188.5 99q-116 0 -179 -71t-63 -185v-262z" />
    <glyph glyph-name="f_h" unicode="fh" horiz-adv-x="1636" 
d="M88 856q30 9 49.5 26t30 44.5t16 52t12.5 66.5t13 69q45 197 149 307.5t273 110.5q102 0 164 -47q35 24 73 55l43 -16q-10 -174 -10 -371l-2 -403l2 -2q42 81 115 133.5t160 52.5q75 0 135.5 -33.5t97.5 -93.5q43 -72 43 -180v-236q0 -137 4 -198q5 -67 22 -96.5
t72 -51.5l-6 -47q-108 6 -164 6q-55 0 -163 -6l-7 47q55 22 72.5 52t22.5 96q4 61 4 198v217q0 87 -49 140t-130 53q-104 0 -166.5 -64t-62.5 -164v-182q0 -137 4 -198q5 -67 22 -96.5t72 -51.5l-6 -47q-108 6 -164 6q-55 0 -163 -6l-7 47q55 22 72.5 52t22.5 96q4 61 4 198
v653q0 130 -4 191q-12 190 -189 190q-103 0 -166 -90t-63 -295v-153q135 3 223 8l16 -35l-16 -76h-223v-401q0 -108 4 -190q3 -64 26.5 -94.5t88.5 -53.5l-6 -47q-72 6 -185 6q-92 0 -164 -6l-6 47q54 22 70.5 51.5t21.5 96.5q7 73 7 198v303q0 58 -16.5 81.5t-80.5 37.5z
" />
    <glyph glyph-name="f_j" unicode="fj" horiz-adv-x="1075" 
d="M88 856q30 9 49.5 26t30 44.5t16 52t12.5 66.5t13 69q101 418 422 418q113 0 188.5 -51t75.5 -127q0 -41 -24.5 -67.5t-67.5 -26.5q-74 0 -121 86q-42 79 -117 79q-104 0 -166.5 -89.5t-62.5 -295.5v-153h315q129 0 217 51l43 -16q-10 -174 -10 -371v-518q0 -144 2 -205
q-12 -114 -76 -210.5t-161 -158.5l-35 37q73 95 100 189.5t27 251.5v538q0 132 -4 193q-3 46 -15 68.5t-45.5 35t-99.5 12.5h-258v-401q0 -108 4 -190q3 -64 26.5 -94.5t88.5 -53.5l-6 -47q-72 6 -185 6q-92 0 -164 -6l-6 47q54 22 70.5 51.5t21.5 96.5q7 73 7 198v303
q0 58 -16.5 81.5t-80.5 37.5z" />
    <glyph glyph-name="f_k" unicode="fk" horiz-adv-x="1497" 
d="M88 856q30 9 49.5 26t30 44.5t16 52t12.5 66.5t13 69q45 197 149 307.5t273 110.5q102 0 164 -47q35 24 73 55l43 -16q-10 -174 -10 -371v-756q0 -143 4 -204q5 -67 22 -96.5t72 -51.5l-6 -47q-108 6 -164 6q-55 0 -163 -6l-7 47q55 22 72.5 52t22.5 96q4 61 4 204v647
q0 130 -4 191q-12 190 -189 190q-49 0 -88 -19.5t-71 -62.5t-50 -120t-18 -183v-153q131 3 221 8l16 -35l-16 -76h-223v-401q0 -108 4 -190q3 -64 26.5 -94.5t88.5 -53.5l-6 -47q-72 6 -185 6q-92 0 -164 -6l-6 47q54 22 70.5 51.5t21.5 96.5q7 73 7 198v303
q0 58 -16.5 81.5t-80.5 37.5zM928 496l63 57q125 114 163 157t38 70q0 35 -57 60l8 47q59 -6 141 -6q64 0 152 6l6 -47q-18 -10 -36.5 -24.5t-32 -26.5t-48 -42.5t-59.5 -52.5q-14 -13 -191 -176q89 -131 138 -197.5t124 -154.5q50 -58 85.5 -84t78.5 -43v-43
q-41 -14 -69 -14q-58 0 -108.5 24.5t-109.5 91.5q-19 22 -36 42t-34.5 43t-28.5 37t-30 40.5t-27 38t-30 44.5l-29 43.5t-34.5 53t-36.5 56.5z" />
    <glyph glyph-name="fagrave" unicode="f&#xe0;" horiz-adv-x="1394" 
d="M88 856q25 8 44 22.5t29.5 30t19.5 43.5t13 47.5t10.5 56.5t10.5 58q41 205 127 311.5t211 106.5q70 0 121 -41t51 -102q0 -38 -23 -63.5t-57 -25.5q-57 0 -84 70q-22 55 -72 55q-66 0 -109.5 -90.5t-43.5 -294.5v-153q135 3 223 8l16 -35l-16 -76h-223v-401
q0 -108 4 -190q3 -64 26.5 -94.5t88.5 -53.5l-6 -47q-72 6 -185 6q-92 0 -164 -6l-6 47q54 22 70.5 51.5t21.5 96.5q7 73 7 198v303q0 58 -16.5 81.5t-80.5 37.5zM641 166q0 68 32.5 116t96.5 89q112 72 315 125v100q0 91 -43 147q-44 58 -129 58q-50 0 -95.5 -20
t-100.5 -64l-39 65q32 59 104.5 103.5t157.5 44.5q154 0 227 -107q27 -38 44.5 -97t17.5 -124v-196q0 -124 4 -187q6 -104 102 -149l-26 -82q-100 4 -149.5 44.5t-63.5 114.5h-4q-39 -90 -102 -133t-136 -43q-96 0 -154.5 55.5t-58.5 139.5zM786 201q0 -45 26 -75t77 -30
q71 0 133.5 58.5t62.5 156.5v113q-17 -5 -118 -47q-181 -77 -181 -176zM793 1446q0 36 21 60t56 24q76 0 103 -109l94 -391l-47 -20l-197 346q-30 52 -30 90z" />
    <glyph glyph-name="facircumflex" unicode="f&#xe2;" horiz-adv-x="1394" 
d="M88 856q25 8 44 22.5t29.5 30t19.5 43.5t13 47.5t10.5 56.5t10.5 58q41 205 127 311.5t211 106.5q70 0 121 -41t51 -102q0 -38 -23 -63.5t-57 -25.5q-57 0 -84 70q-22 55 -72 55q-66 0 -109.5 -90.5t-43.5 -294.5v-153q135 3 223 8l16 -35l-16 -76h-223v-401
q0 -108 4 -190q3 -64 26.5 -94.5t88.5 -53.5l-6 -47q-72 6 -185 6q-92 0 -164 -6l-6 47q54 22 70.5 51.5t21.5 96.5q7 73 7 198v303q0 58 -16.5 81.5t-80.5 37.5zM641 166q0 68 32.5 116t96.5 89q112 72 315 125v100q0 91 -43 147q-44 58 -129 58q-50 0 -95.5 -20
t-100.5 -64l-39 65q32 59 104.5 103.5t157.5 44.5q154 0 227 -107q27 -38 44.5 -97t17.5 -124v-196q0 -124 4 -187q6 -104 102 -149l-26 -82q-100 4 -149.5 44.5t-63.5 114.5h-4q-39 -90 -102 -133t-136 -43q-96 0 -154.5 55.5t-58.5 139.5zM713 1061l198 420q20 49 60 49
q39 0 59 -49l199 -420l-43 -27l-215 275l-215 -275zM786 201q0 -45 26 -75t77 -30q71 0 133.5 58.5t62.5 156.5v113q-17 -5 -118 -47q-181 -77 -181 -176z" />
    <glyph glyph-name="fatilde" unicode="f&#xe3;" horiz-adv-x="1435" 
d="M88 856q25 8 44 22.5t29.5 30t19.5 43.5t13 47.5t10.5 56.5t10.5 58q41 205 127 311.5t211 106.5q70 0 121 -41t51 -102q0 -38 -23 -63.5t-57 -25.5q-57 0 -84 70q-22 55 -72 55q-66 0 -109.5 -90.5t-43.5 -294.5v-153q135 3 223 8l16 -35l-16 -76h-223v-401
q0 -108 4 -190q3 -64 26.5 -94.5t88.5 -53.5l-6 -47q-72 6 -185 6q-92 0 -164 -6l-6 47q54 22 70.5 51.5t21.5 96.5q7 73 7 198v303q0 58 -16.5 81.5t-80.5 37.5zM682 166q0 68 32.5 116t96.5 89q112 72 315 125v100q0 91 -43 147q-44 58 -129 58q-50 0 -95.5 -20
t-100.5 -64l-39 65q32 59 104.5 103.5t157.5 44.5q154 0 227 -107q27 -38 44.5 -97t17.5 -124v-196q0 -124 4 -187q6 -104 102 -149l-26 -82q-100 4 -149.5 44.5t-63.5 114.5h-4q-39 -90 -102 -133t-136 -43q-96 0 -154.5 55.5t-58.5 139.5zM723 1219q89 139 203 139
q53 0 123 -31q8 -4 24.5 -11.5l22 -10t17.5 -7t19 -6t17.5 -3t21.5 -1.5q64 0 129 51l35 -36q-90 -140 -200 -140q-53 0 -123 31q-7 3 -24.5 11t-22.5 10.5t-17.5 7t-19.5 6t-17.5 3t-21.5 1.5q-64 0 -129 -51zM827 201q0 -45 26 -75t77 -30q71 0 133.5 58.5t62.5 156.5v113
q-17 -5 -118 -47q-181 -77 -181 -176z" />
    <glyph glyph-name="faring" unicode="f&#xe5;" horiz-adv-x="1415" 
d="M88 856q25 8 44 22.5t29.5 30t19.5 43.5t13 47.5t10.5 56.5t10.5 58q41 205 127 311.5t211 106.5q70 0 121 -41t51 -102q0 -38 -23 -63.5t-57 -25.5q-57 0 -84 70q-22 55 -72 55q-66 0 -109.5 -90.5t-43.5 -294.5v-153q135 3 223 8l16 -35l-16 -76h-223v-401
q0 -108 4 -190q3 -64 26.5 -94.5t88.5 -53.5l-6 -47q-72 6 -185 6q-92 0 -164 -6l-6 47q54 22 70.5 51.5t21.5 96.5q7 73 7 198v303q0 58 -16.5 81.5t-80.5 37.5zM662 166q0 68 32.5 116t96.5 89q112 72 315 125v100q0 91 -43 147q-44 58 -129 58q-90 0 -197 -84l-39 65
q32 59 105 103.5t158 44.5q154 0 227 -107q61 -87 61 -221v-196q0 -124 4 -187q6 -103 103 -149l-27 -82q-100 4 -149.5 44.5t-63.5 114.5h-4q-39 -90 -102 -133t-136 -43q-96 0 -154 55.5t-58 139.5zM786 1317q0 88 61.5 150.5t149.5 62.5t150.5 -62.5t62.5 -150.5
t-62.5 -149.5t-150.5 -61.5t-149.5 61.5t-61.5 149.5zM807 201q0 -45 25.5 -75t76.5 -30q71 0 134 58.5t63 156.5v113q-22 -7 -119 -47q-180 -76 -180 -176zM874 1315q0 -53 34.5 -89t86.5 -36q54 0 89.5 36t35.5 89q0 54 -35.5 91.5t-89.5 37.5q-52 0 -86.5 -37.5
t-34.5 -91.5z" />
    <glyph glyph-name="fedieresis" unicode="f&#xeb;" horiz-adv-x="1527" 
d="M88 856q25 8 44 22.5t29.5 30t19.5 43.5t13 47.5t10.5 56.5t10.5 58q41 205 127 311.5t211 106.5q70 0 121 -41t51 -102q0 -38 -23 -63.5t-57 -25.5q-57 0 -84 70q-22 55 -72 55q-66 0 -109.5 -90.5t-43.5 -294.5v-153q135 3 223 8l16 -35l-16 -76h-223v-401
q0 -108 4 -190q3 -64 26.5 -94.5t88.5 -53.5l-6 -47q-72 6 -185 6q-92 0 -164 -6l-6 47q54 22 70.5 51.5t21.5 96.5q7 73 7 198v303q0 58 -16.5 81.5t-80.5 37.5zM645 434q0 213 129 356.5t320 143.5q148 0 247 -97.5t99 -244.5q0 -31 -4 -47h-631q-4 -25 -4 -78
q0 -156 83 -255t208 -99q98 0 164.5 37.5t129.5 128.5l50 -31q-49 -125 -142.5 -203t-222.5 -78q-124 0 -222.5 64.5t-151 171t-52.5 231.5zM807 1333q0 43 29.5 73t72.5 30q44 0 74.5 -30t30.5 -73q0 -44 -30.5 -74t-74.5 -30q-43 0 -72.5 30t-29.5 74zM819 627h441
q-1 101 -61 158t-150 57t-150 -60t-80 -155zM1153 1333q0 43 29.5 73t72.5 30q44 0 74.5 -30t30.5 -73q0 -44 -30.5 -74t-74.5 -30q-43 0 -72.5 30t-29.5 74z" />
    <glyph glyph-name="fiacute" unicode="f&#xed;" horiz-adv-x="1091" 
d="M88 856q25 8 44 22.5t29.5 30t19.5 43.5t13 47.5t10.5 56.5t10.5 58q41 205 127 311.5t211 106.5q70 0 121 -41t51 -102q0 -38 -23 -63.5t-57 -25.5q-57 0 -84 70q-22 55 -72 55q-66 0 -108.5 -90.5t-42.5 -294.5v-153l313 4q78 2 126 12t91 35l43 -16q-10 -174 -10 -371
v-154q0 -143 4 -204q5 -67 22 -96.5t72 -51.5l-6 -47q-108 6 -164 6q-55 0 -163 -6l-7 47q55 22 72.5 52t22.5 96q4 61 4 204v78q0 132 -4 193q-3 46 -15 68.5t-45.5 35t-99.5 12.5h-258v-401q0 -108 4 -190q3 -64 26.5 -94.5t88.5 -53.5l-6 -47q-72 6 -185 6q-92 0 -164 -6
l-6 47q54 22 70.5 51.5t21.5 96.5q7 73 7 198v303q0 58 -16.5 81.5t-80.5 37.5zM741 1030l95 391q27 109 102 109q35 0 56.5 -24t21.5 -60q0 -37 -31 -90l-197 -346z" />
    <glyph glyph-name="figrave" unicode="f&#xec;" horiz-adv-x="1091" 
d="M88 856q30 9 49.5 26t30 45t15.5 51.5t11.5 66.5t12.5 69q44 195 139.5 306.5t247.5 111.5q98 0 152 -48t77 -141l76 -313l-47 -20l-180 317q-30 53 -62 75.5t-80 22.5q-87 0 -140.5 -90t-53.5 -295v-153l315 4q78 2 126 12t91 35l43 -16q-10 -174 -10 -371v-154
q0 -143 4 -204q0 -64 19 -94.5t75 -53.5l-6 -47q-108 6 -164 6q-55 0 -163 -6l-7 47q55 22 72.5 52t22.5 96q4 61 4 204v78q0 132 -4 193q-3 46 -15 68.5t-45.5 35t-99.5 12.5h-258v-401q0 -108 4 -190q3 -64 26.5 -94.5t88.5 -53.5l-6 -47q-72 6 -185 6q-92 0 -164 -6
l-6 47q54 22 70.5 51.5t21.5 96.5q7 73 7 198v303q0 58 -16.5 81.5t-80.5 37.5z" />
    <glyph glyph-name="ficircumflex" unicode="f&#xee;" horiz-adv-x="1177" 
d="M88 856q25 8 44 22.5t29.5 30t19.5 43.5t13 47.5t10.5 56.5t10.5 58q41 205 127 311.5t211 106.5q70 0 121 -41t51 -102q0 -38 -23 -63.5t-57 -25.5q-57 0 -84 70q-22 55 -72 55q-66 0 -109.5 -90.5t-43.5 -294.5v-153q135 3 223 8l16 -35l-16 -76h-223v-401
q0 -108 4 -190q3 -64 26.5 -94.5t88.5 -53.5l-6 -47q-72 6 -185 6q-92 0 -164 -6l-6 47q54 22 70.5 51.5t21.5 96.5q7 73 7 198v303q0 58 -16.5 81.5t-80.5 37.5zM662 1061l198 420q20 49 60 49q39 0 59 -49l199 -420l-43 -27l-215 275l-215 -275zM735 752v43
q70 32 116.5 62.5t100.5 80.5l43 -16q-10 -174 -10 -371v-154q0 -82 4 -204q2 -65 20 -95t74 -53l-6 -47q-108 6 -164 6q-55 0 -163 -6l-7 47q55 22 72.5 52t22.5 96q4 61 4 204v45q0 132 -4 193t-25 83.5t-78 33.5z" />
    <glyph glyph-name="fidieresis" unicode="f&#xef;" horiz-adv-x="1214" 
d="M88 856q25 8 44 22.5t29.5 30t19.5 43.5t13 47.5t10.5 56.5t10.5 58q41 205 127 311.5t211 106.5q70 0 121 -41t51 -102q0 -38 -23 -63.5t-57 -25.5q-57 0 -84 70q-22 55 -72 55q-66 0 -109.5 -90.5t-43.5 -294.5v-153q135 3 223 8l16 -35l-16 -76h-223v-401
q0 -108 4 -190q3 -64 26.5 -94.5t88.5 -53.5l-6 -47q-72 6 -185 6q-92 0 -164 -6l-6 47q54 22 70.5 51.5t21.5 96.5q7 73 7 198v303q0 58 -16.5 81.5t-80.5 37.5zM686 1210q0 43 29.5 73t72.5 30q44 0 74.5 -30t30.5 -73q0 -44 -30.5 -74t-74.5 -30q-43 0 -72.5 30t-29.5 74
zM774 752v43q70 32 116.5 62.5t100.5 80.5l43 -16q-10 -174 -10 -371v-154q0 -82 4 -204q2 -65 20 -95t74 -53l-6 -47q-108 6 -164 6t-164 -6l-6 47q55 22 72.5 52t22.5 96q4 61 4 204v45q0 132 -4 193t-25 83.5t-78 33.5zM1032 1210q0 43 30 73t73 30q44 0 74 -30t30 -73
q0 -44 -30 -74t-74 -30q-43 0 -73 30t-30 74z" />
    <glyph glyph-name="fodieresis" unicode="f&#xf6;" horiz-adv-x="1636" 
d="M88 856q25 8 44 22.5t29.5 30t19.5 43.5t13 47.5t10.5 56.5t10.5 58q41 205 127 311.5t211 106.5q70 0 121 -41t51 -102q0 -38 -23 -63.5t-57 -25.5q-57 0 -84 70q-22 55 -72 55q-66 0 -109.5 -90.5t-43.5 -294.5v-153q135 3 223 8l16 -35l-16 -76h-223v-401
q0 -108 4 -190q3 -64 26.5 -94.5t88.5 -53.5l-6 -47q-72 6 -185 6q-92 0 -164 -6l-6 47q54 22 70.5 51.5t21.5 96.5q7 73 7 198v303q0 58 -16.5 81.5t-80.5 37.5zM645 451q0 199 133.5 341t321.5 142q129 0 233.5 -63.5t163.5 -174.5t59 -245q0 -132 -59.5 -243.5t-162 -176
t-224.5 -64.5q-200 0 -332.5 139.5t-132.5 344.5zM813 469q0 -189 83 -296t220 -107q122 0 197.5 98t75.5 274q0 180 -83.5 291t-211.5 111q-122 0 -201.5 -97.5t-79.5 -273.5zM813 1333q0 43 29.5 73t72.5 30q44 0 74.5 -30t30.5 -73q0 -44 -30.5 -74t-74.5 -30
q-43 0 -72.5 30t-29.5 74zM1159 1333q0 43 30 73t73 30q44 0 74 -30t30 -73q0 -44 -30 -74t-74 -30q-43 0 -73 30t-30 74z" />
    <glyph glyph-name="fotilde" unicode="f&#xf5;" horiz-adv-x="1636" 
d="M88 856q25 8 44 22.5t29.5 30t19.5 43.5t13 47.5t10.5 56.5t10.5 58q41 205 127 311.5t211 106.5q70 0 121 -41t51 -102q0 -38 -23 -63.5t-57 -25.5q-57 0 -84 70q-22 55 -72 55q-66 0 -109.5 -90.5t-43.5 -294.5v-153q135 3 223 8l16 -35l-16 -76h-223v-401
q0 -108 4 -190q3 -64 26.5 -94.5t88.5 -53.5l-6 -47q-72 6 -185 6q-92 0 -164 -6l-6 47q54 22 70.5 51.5t21.5 96.5q7 73 7 198v303q0 58 -16.5 81.5t-80.5 37.5zM645 451q0 199 133.5 341t321.5 142q129 0 233.5 -63.5t163.5 -174.5t59 -245q0 -132 -59.5 -243.5t-162 -176
t-224.5 -64.5q-200 0 -332.5 139.5t-132.5 344.5zM811 1280q89 139 203 139q56 0 123 -30q7 -3 24.5 -11t22.5 -10.5t17.5 -7t19.5 -6t17.5 -3t21.5 -1.5q64 0 129 51l34 -37q-89 -139 -200 -139q-55 0 -123 30q-7 3 -24.5 11t-22.5 10.5t-17.5 7t-19.5 6t-17.5 3t-21.5 1.5
q-64 0 -129 -51zM813 469q0 -189 83 -296t220 -107q122 0 197.5 98t75.5 274q0 180 -83.5 291t-211.5 111q-122 0 -201.5 -97.5t-79.5 -273.5z" />
    <glyph glyph-name="futilde" unicode="f&#x169;" horiz-adv-x="1634" 
d="M88 856q25 8 44 22.5t29.5 30t19.5 43.5t13 47.5t10.5 56.5t10.5 58q41 205 127 311.5t211 106.5q70 0 121 -41t51 -102q0 -38 -23 -63.5t-57 -25.5q-57 0 -84 70q-22 55 -72 55q-66 0 -109.5 -90.5t-43.5 -294.5v-153q135 3 223 8l16 -35l-16 -76h-223v-401
q0 -108 4 -190q3 -64 26.5 -94.5t88.5 -53.5l-6 -47q-72 6 -185 6q-92 0 -164 -6l-6 47q54 22 70.5 51.5t21.5 96.5q7 73 7 198v303q0 58 -16.5 81.5t-80.5 37.5zM643 840l6 45q164 4 256 10q-2 -42 -6 -114t-6 -128t-2 -127v-233q0 -95 43.5 -144t118.5 -49q109 0 173 70
t64 184v144q0 129 -6 192q-4 62 -26 94t-72 56l6 45q164 4 256 10q-2 -42 -6 -114t-6 -128t-2 -127v-88q0 -121 6 -184q4 -62 24 -84t76 -33v-43q-60 -28 -100.5 -55.5t-91.5 -71.5l-43 10l-7 189l-2 2q-38 -88 -112.5 -144.5t-163.5 -56.5q-158 0 -232 121q-40 70 -40 186
v224q0 118 -7 192q-6 63 -27 95t-71 55zM791 1280q89 139 202 139q55 0 123 -30q7 -3 24.5 -11t22.5 -10.5t17.5 -7t19.5 -6t17.5 -3t21.5 -1.5q64 0 129 51l35 -37q-89 -139 -201 -139q-56 0 -123 30q-7 3 -24.5 11t-22.5 10.5t-17.5 7t-19.5 6t-17.5 3t-21.5 1.5
q-64 0 -129 -51z" />
    <glyph glyph-name="fscaron" unicode="f&#x161;" horiz-adv-x="1343" 
d="M88 856q25 8 44 22.5t29.5 30t19.5 43.5t13 47.5t10.5 56.5t10.5 58q41 205 127 311.5t211 106.5q70 0 121 -41t51 -102q0 -38 -23 -63.5t-57 -25.5q-57 0 -84 70q-22 55 -72 55q-66 0 -109.5 -90.5t-43.5 -294.5v-153q135 3 223 8l16 -35l-16 -76h-223v-401
q0 -108 4 -190q3 -64 26.5 -94.5t88.5 -53.5l-6 -47q-72 6 -185 6q-92 0 -164 -6l-6 47q54 22 70.5 51.5t21.5 96.5q7 73 7 198v303q0 58 -16.5 81.5t-80.5 37.5zM711 150q0 36 20 58.5t55 22.5q67 0 88 -79q27 -99 123 -99q67 0 107.5 34t40.5 103q0 63 -40 108.5
t-140 96.5q-120 60 -173 127.5t-53 151.5q0 109 79.5 183.5t189.5 74.5q59 0 100.5 -13.5t83.5 -46.5q53 -43 53 -100q0 -33 -19.5 -53.5t-51.5 -20.5q-58 0 -87 70q-19 41 -42.5 59.5t-67.5 18.5q-51 0 -85 -33t-34 -84q0 -60 42.5 -109t150.5 -102q119 -58 171 -124.5
t52 -164.5q0 -116 -80.5 -189t-204.5 -73q-78 0 -126 14.5t-91 51.5q-61 51 -61 117zM748 1503l43 27l215 -275l215 275l43 -27l-199 -420q-20 -49 -59 -49q-40 0 -60 49z" />
    <glyph glyph-name="fydieresis" unicode="f&#xff;" horiz-adv-x="1478" 
d="M88 856q25 8 44 22.5t29.5 30t19.5 43.5t13 47.5t10.5 56.5t10.5 58q41 205 127 311.5t211 106.5q70 0 121 -41t51 -102q0 -38 -23 -63.5t-57 -25.5q-57 0 -84 70q-22 55 -72 55q-66 0 -109.5 -90.5t-43.5 -294.5v-153q135 3 223 8l16 -35l-16 -76h-223v-401
q0 -108 4 -190q3 -64 26.5 -94.5t88.5 -53.5l-6 -47q-72 6 -185 6q-92 0 -164 -6l-6 47q54 22 70.5 51.5t21.5 96.5q7 73 7 198v303q0 58 -16.5 81.5t-80.5 37.5zM563 -479q0 35 22 59.5t56 24.5q20 0 46 -5.5t44 -5.5q59 0 105 99l147 319l-203 502q-3 8 -32.5 85.5
t-49.5 121.5q-23 51 -40 72.5t-54 46.5l8 47q89 -6 166 -6q54 0 142 6l6 -47q-62 -28 -62 -82q0 -37 13 -83t57 -157l127 -319l135 317q64 150 64 215q0 36 -14.5 61t-57.5 48l8 47q59 -6 139 -6q74 0 133 6l7 -47q-45 -40 -99 -148q-18 -36 -47.5 -103.5t-32.5 -74.5
l-362 -819q-58 -131 -119 -195q-65 -65 -156 -65q-41 0 -68.5 24.5t-27.5 61.5zM811 1333q0 43 29.5 73t72.5 30q44 0 74.5 -30t30.5 -73q0 -44 -30.5 -74t-74.5 -30q-43 0 -72.5 30t-29.5 74zM1157 1333q0 43 30 73t73 30q44 0 74 -30t30 -73q0 -44 -30 -74t-74 -30
q-43 0 -73 30t-30 74z" />
    <glyph glyph-name="flcaron" unicode="f&#x13e;" horiz-adv-x="1193" 
d="M88 856q30 9 49.5 26t30 44.5t16 52t12.5 66.5t13 69q45 197 149 307.5t273 110.5q102 0 164 -47q35 24 73 55l43 -16q-10 -174 -10 -371v-756q0 -143 4 -204q0 -64 19 -94.5t75 -53.5l-6 -47q-108 6 -164 6q-55 0 -163 -6l-7 47q55 22 72.5 52t22.5 96q4 61 4 204v647
q0 130 -4 191q-12 190 -189 190q-103 0 -166 -90t-63 -295v-153q135 3 223 8l16 -35l-16 -76h-223v-401q0 -108 4 -190q3 -64 26.5 -94.5t88.5 -53.5l-6 -47q-72 6 -185 6q-92 0 -164 -6l-6 47q54 22 70.5 51.5t21.5 96.5q7 73 7 198v303q0 58 -16.5 81.5t-80.5 37.5z
M1042 1149q88 33 121 66t33 71q0 52 -57 84q-37 21 -54.5 41.5t-17.5 52.5q0 30 23 52t57 22q56 0 100.5 -52.5t44.5 -133.5q0 -101 -56.5 -161t-176.5 -93z" />
    <glyph glyph-name="fzdotaccent" unicode="f&#x17c;" horiz-adv-x="1398" 
d="M88 856q25 8 44 22.5t29.5 30t19.5 43.5t13 47.5t10.5 56.5t10.5 58q41 205 127 311.5t211 106.5q70 0 121 -41t51 -102q0 -38 -23 -63.5t-57 -25.5q-57 0 -84 70q-22 55 -72 55q-66 0 -109.5 -90.5t-43.5 -294.5v-153q135 3 223 8l16 -35l-16 -76h-223v-401
q0 -108 4 -190q3 -64 26.5 -94.5t88.5 -53.5l-6 -47q-72 6 -185 6q-92 0 -164 -6l-6 47q54 22 70.5 51.5t21.5 96.5q7 73 7 198v303q0 58 -16.5 81.5t-80.5 37.5zM623 78q131 177 143 194l364 521h-126q-87 0 -148 -9q-54 -8 -83 -36t-58 -103l-53 10q13 152 30 236
q137 -10 240 -10h176q7 0 205 6l12 -53q-71 -95 -154 -216l-372 -530h157q88 0 160 10q66 10 94 62q25 37 56 123l55 -11q-12 -184 -29 -282q-12 0 -51.5 3t-89 5t-111.5 2h-133q-96 0 -260 -4zM870 1389q0 49 32.5 81.5t82.5 32.5t82.5 -32.5t32.5 -81.5t-33 -82t-82 -33
t-82 33t-33 82z" />
    <glyph glyph-name="fabreve" unicode="f&#x103;" horiz-adv-x="1454" 
d="M88 856q25 8 44 22.5t29.5 30t19.5 43.5t13 47.5t10.5 56.5t10.5 58q41 205 127 311.5t211 106.5q70 0 121 -41t51 -102q0 -38 -23 -63.5t-57 -25.5q-57 0 -84 70q-22 55 -72 55q-66 0 -109.5 -90.5t-43.5 -294.5v-153q135 3 223 8l16 -35l-16 -76h-223v-401
q0 -108 4 -190q3 -64 26.5 -94.5t88.5 -53.5l-6 -47q-72 6 -185 6q-92 0 -164 -6l-6 47q54 22 70.5 51.5t21.5 96.5q7 73 7 198v303q0 58 -16.5 81.5t-80.5 37.5zM700 166q0 68 32.5 116t96.5 89q112 72 316 125v100q0 91 -43 147q-44 58 -129 58q-90 0 -197 -84l-39 65
q32 59 104.5 103.5t157.5 44.5q155 0 228 -107q61 -87 61 -221v-196q0 -124 4 -187q6 -103 103 -149l-27 -82q-100 4 -149.5 44.5t-63.5 114.5h-4q-39 -90 -102 -133t-136 -43q-96 0 -154.5 55.5t-58.5 139.5zM772 1516l49 4q35 -160 84 -230.5t125 -70.5t125 70.5t84 230.5
l49 -4q-6 -222 -76.5 -331.5t-181.5 -109.5t-181.5 109.5t-76.5 331.5zM846 201q0 -45 25.5 -75t76.5 -30q71 0 134 58.5t63 156.5v113q-22 -7 -119 -47q-180 -76 -180 -176z" />
    <glyph glyph-name="flacute" unicode="f&#x13a;" horiz-adv-x="1091" 
d="M88 856q30 9 49.5 26t30 44.5t16 52t12.5 66.5t13 69q45 197 149 307.5t273 110.5q102 0 164 -47q35 24 73 55l43 -16q-10 -174 -10 -371v-756q0 -143 4 -204q0 -64 19 -94.5t75 -53.5l-6 -47q-108 6 -164 6q-55 0 -163 -6l-7 47q55 22 72.5 52t22.5 96q4 61 4 204v647
q0 130 -4 191q-12 190 -189 190q-103 0 -166 -90t-63 -295v-153q135 3 223 8l16 -35l-16 -76h-223v-401q0 -108 4 -190q3 -64 26.5 -94.5t88.5 -53.5l-6 -47q-72 6 -185 6q-92 0 -164 -6l-6 47q54 22 70.5 51.5t21.5 96.5q7 73 7 198v303q0 58 -16.5 81.5t-80.5 37.5z
M571 1620l342 209q51 31 88 31t59.5 -23.5t22.5 -60.5q0 -39 -26 -61.5t-86 -37.5l-381 -106z" />
    <glyph glyph-name="fccaron" unicode="f&#x10d;" horiz-adv-x="1484" 
d="M88 856q25 8 44 22.5t29.5 30t19.5 43.5t13 47.5t10.5 56.5t10.5 58q41 205 127 311.5t211 106.5q70 0 121 -41t51 -102q0 -38 -23 -63.5t-57 -25.5q-57 0 -84 70q-22 55 -72 55q-66 0 -109.5 -90.5t-43.5 -294.5v-153q135 3 223 8l16 -35l-16 -76h-223v-401
q0 -108 4 -190q3 -64 26.5 -94.5t88.5 -53.5l-6 -47q-72 6 -185 6q-92 0 -164 -6l-6 47q54 22 70.5 51.5t21.5 96.5q7 73 7 198v303q0 58 -16.5 81.5t-80.5 37.5zM645 434q0 140 61 255t165.5 180t230.5 65q137 0 231 -84q74 -65 74 -152q0 -39 -23 -64.5t-63 -25.5
q-75 0 -90 86q-26 148 -162 148q-120 0 -193 -100t-73 -275q0 -157 80 -255.5t200 -98.5q98 0 163 37.5t128 128.5l49 -31q-49 -127 -140 -204t-220 -77q-123 0 -220 65t-147.5 170.5t-50.5 231.5zM825 1503l43 27l215 -275l215 275l43 -27l-198 -420q-20 -49 -60 -49
q-39 0 -59 49z" />
    <glyph glyph-name="fecaron" unicode="f&#x11b;" horiz-adv-x="1527" 
d="M88 856q25 8 44 22.5t29.5 30t19.5 43.5t13 47.5t10.5 56.5t10.5 58q41 205 127 311.5t211 106.5q70 0 121 -41t51 -102q0 -38 -23 -63.5t-57 -25.5q-57 0 -84 70q-22 55 -72 55q-66 0 -109.5 -90.5t-43.5 -294.5v-153q135 3 223 8l16 -35l-16 -76h-223v-401
q0 -108 4 -190q3 -64 26.5 -94.5t88.5 -53.5l-6 -47q-72 6 -185 6q-92 0 -164 -6l-6 47q54 22 70.5 51.5t21.5 96.5q7 73 7 198v303q0 58 -16.5 81.5t-80.5 37.5zM645 434q0 213 129 356.5t320 143.5q148 0 247 -97.5t99 -244.5q0 -31 -4 -47h-631q-4 -25 -4 -78
q0 -156 83 -255t208 -99q98 0 164.5 37.5t129.5 128.5l50 -31q-49 -125 -142.5 -203t-222.5 -78q-124 0 -222.5 64.5t-151 171t-52.5 231.5zM813 1503l43 27l215 -275l215 275l43 -27l-199 -420q-20 -49 -59 -49t-59 49zM819 627h441q-1 101 -61 158t-150 57t-150 -60
t-80 -155z" />
    <glyph glyph-name="frcaron" unicode="f&#x159;" horiz-adv-x="1282" 
d="M88 856q25 8 44 22.5t29.5 30t19.5 43.5t13 47.5t10.5 56.5t10.5 58q41 205 127 311.5t211 106.5q70 0 121 -41t51 -102q0 -38 -23 -63.5t-57 -25.5q-57 0 -84 70q-22 55 -72 55q-66 0 -109.5 -90.5t-43.5 -294.5v-153q135 3 223 8l16 -35l-16 -76h-223v-401
q0 -108 4 -190q3 -64 26.5 -94.5t88.5 -53.5l-6 -47q-72 6 -185 6q-92 0 -164 -6l-6 47q54 22 70.5 51.5t21.5 96.5q7 73 7 198v303q0 58 -16.5 81.5t-80.5 37.5zM668 752v43q72 35 118 65t99 78l43 -16q-9 -101 -13 -199l3 -2q41 100 106.5 156.5t138.5 56.5q61 0 96 -30
t35 -73q0 -71 -73 -71q-27 0 -65 18.5t-62 18.5q-75 0 -125.5 -83.5t-50.5 -226.5v-96q0 -135 4 -198q5 -66 27 -97.5t87 -50.5l-6 -47q-72 6 -184 6q-92 0 -164 -6l-6 47q54 22 70.5 51.5t21.5 96.5q6 63 6 198v51q0 130 -6 193q-4 62 -24 84t-76 33zM758 1503l43 27
l215 -275l215 275l43 -27l-199 -420q-20 -49 -59 -49q-40 0 -60 49z" />
    <glyph glyph-name="famacron" unicode="f&#x101;" horiz-adv-x="1456" 
d="M88 856q25 8 44 22.5t29.5 30t19.5 43.5t13 47.5t10.5 56.5t10.5 58q41 205 127 311.5t211 106.5q70 0 121 -41t51 -102q0 -38 -23 -63.5t-57 -25.5q-57 0 -84 70q-22 55 -72 55q-66 0 -109.5 -90.5t-43.5 -294.5v-153q135 3 223 8l16 -35l-16 -76h-223v-401
q0 -108 4 -190q3 -64 26.5 -94.5t88.5 -53.5l-6 -47q-72 6 -185 6q-92 0 -164 -6l-6 47q54 22 70.5 51.5t21.5 96.5q7 73 7 198v303q0 58 -16.5 81.5t-80.5 37.5zM702 166q0 68 32.5 116t96.5 89q112 72 316 125v100q0 91 -43 147q-44 58 -129 58q-90 0 -197 -84l-39 65
q32 59 104.5 103.5t157.5 44.5q155 0 228 -107q61 -87 61 -221v-196q0 -124 4 -187q6 -103 103 -149l-27 -82q-100 4 -149.5 44.5t-63.5 114.5h-4q-39 -90 -102 -133t-136 -43q-96 0 -154.5 55.5t-58.5 139.5zM754 1202v111h553v-111h-553zM848 201q0 -45 25.5 -75t76.5 -30
q71 0 134 58.5t63 156.5v113q-21 -7 -119 -47q-180 -76 -180 -176z" />
    <glyph glyph-name="femacron" unicode="f&#x113;" horiz-adv-x="1527" 
d="M88 856q25 8 44 22.5t29.5 30t19.5 43.5t13 47.5t10.5 56.5t10.5 58q41 205 127 311.5t211 106.5q70 0 121 -41t51 -102q0 -38 -23 -63.5t-57 -25.5q-57 0 -84 70q-22 55 -72 55q-66 0 -109.5 -90.5t-43.5 -294.5v-153q135 3 223 8l16 -35l-16 -76h-223v-401
q0 -108 4 -190q3 -64 26.5 -94.5t88.5 -53.5l-6 -47q-72 6 -185 6q-92 0 -164 -6l-6 47q54 22 70.5 51.5t21.5 96.5q7 73 7 198v303q0 58 -16.5 81.5t-80.5 37.5zM645 434q0 213 129 356.5t320 143.5q148 0 247 -97.5t99 -244.5q0 -31 -4 -47h-631q-4 -25 -4 -78
q0 -156 83 -255t208 -99q98 0 164.5 37.5t129.5 128.5l50 -31q-49 -125 -142.5 -203t-222.5 -78q-124 0 -222.5 64.5t-151 171t-52.5 231.5zM809 1264v110h553v-110h-553zM819 627h441q-1 101 -61 158t-150 57t-150 -60t-80 -155z" />
    <glyph glyph-name="fiogonek" unicode="f&#x12f;" horiz-adv-x="1091" 
d="M88 856q30 9 49.5 26t30 44.5t16 52t12.5 66.5t13 69q101 418 422 418q113 0 188.5 -51t75.5 -127q0 -41 -24.5 -67.5t-67.5 -26.5q-74 0 -121 86q-42 79 -117 79q-104 0 -166.5 -89.5t-62.5 -295.5v-153h315q129 0 217 51l43 -16q-10 -174 -10 -371v-154q0 -82 4 -204
q2 -65 20 -95t74 -53l-6 -47q-90 4 -108 4q-121 -107 -121 -209q0 -47 25.5 -71.5t62.5 -24.5q67 0 94 72l47 -15q-12 -82 -54.5 -127t-109.5 -45q-70 0 -118.5 47.5t-48.5 122.5q0 137 147 252q-21 0 -69 -2.5t-74 -3.5l-7 47q55 22 72.5 52t22.5 96q4 61 4 204v78
q0 132 -4 193q-3 46 -15 68.5t-45.5 35t-99.5 12.5h-258v-401q0 -108 4 -190q3 -64 26.5 -94.5t88.5 -53.5l-6 -47q-72 6 -185 6q-92 0 -164 -6l-6 47q54 22 70.5 51.5t21.5 96.5q7 73 7 198v303q0 58 -16.5 81.5t-80.5 37.5z" />
    <glyph glyph-name="fimacron" unicode="f&#x12b;" horiz-adv-x="1193" 
d="M88 856q25 8 44 22.5t29.5 30t19.5 43.5t13 47.5t10.5 56.5t10.5 58q41 205 127 311.5t211 106.5q70 0 121 -41t51 -102q0 -38 -23 -63.5t-57 -25.5q-57 0 -84 70q-22 55 -72 55q-66 0 -109.5 -90.5t-43.5 -294.5v-153q135 3 223 8l16 -35l-16 -76h-223v-401
q0 -108 4 -190q3 -64 26.5 -94.5t88.5 -53.5l-6 -47q-72 6 -185 6q-92 0 -164 -6l-6 47q54 22 70.5 51.5t21.5 96.5q7 73 7 198v303q0 58 -16.5 81.5t-80.5 37.5zM666 1141v110h553v-110h-553zM754 752v43q70 32 116.5 62.5t100.5 80.5l43 -16q-10 -174 -10 -371v-154
q0 -82 4 -204q2 -65 20 -95t74 -53l-6 -47q-108 6 -164 6t-164 -6l-6 47q55 22 72 51.5t22 96.5q4 61 4 204v45q0 132 -4 193q-4 62 -24.5 84t-77.5 33z" />
    <glyph glyph-name="fomacron" unicode="f&#x14d;" horiz-adv-x="1636" 
d="M88 856q25 8 44 22.5t29.5 30t19.5 43.5t13 47.5t10.5 56.5t10.5 58q41 205 127 311.5t211 106.5q70 0 121 -41t51 -102q0 -38 -23 -63.5t-57 -25.5q-57 0 -84 70q-22 55 -72 55q-66 0 -109.5 -90.5t-43.5 -294.5v-153q135 3 223 8l16 -35l-16 -76h-223v-401
q0 -108 4 -190q3 -64 26.5 -94.5t88.5 -53.5l-6 -47q-72 6 -185 6q-92 0 -164 -6l-6 47q54 22 70.5 51.5t21.5 96.5q7 73 7 198v303q0 58 -16.5 81.5t-80.5 37.5zM645 451q0 199 133.5 341t321.5 142q129 0 233.5 -63.5t163.5 -174.5t59 -245q0 -132 -59.5 -243.5t-162 -176
t-224.5 -64.5q-200 0 -332.5 139.5t-132.5 344.5zM813 469q0 -189 83 -296t220 -107q122 0 197.5 98t75.5 274q0 180 -83.5 291t-211.5 111q-122 0 -201.5 -97.5t-79.5 -273.5zM821 1264v110h553v-110h-553z" />
    <glyph glyph-name="flcommaaccent" unicode="f&#x13c;" horiz-adv-x="1091" 
d="M88 856q30 9 49.5 26t30 44.5t16 52t12.5 66.5t13 69q45 197 149 307.5t273 110.5q102 0 164 -47q35 24 73 55l43 -16q-10 -174 -10 -371v-756q0 -143 4 -204q0 -64 19 -94.5t75 -53.5l-6 -47q-108 6 -164 6q-55 0 -163 -6l-7 47q55 22 72.5 52t22.5 96q4 61 4 204v647
q0 130 -4 191q-12 190 -189 190q-103 0 -166 -90t-63 -295v-153q135 3 223 8l16 -35l-16 -76h-223v-401q0 -108 4 -190q3 -64 26.5 -94.5t88.5 -53.5l-6 -47q-72 6 -185 6q-92 0 -164 -6l-6 47q54 22 70.5 51.5t21.5 96.5q7 73 7 198v303q0 58 -16.5 81.5t-80.5 37.5z
M702 -512q88 33 121 66t33 71q0 52 -57 84q-37 21 -54.5 41.5t-17.5 52.5q0 30 23 52t57 22q56 0 100.5 -52.5t44.5 -133.5q0 -101 -56.5 -161t-176.5 -93z" />
    <glyph glyph-name="fumacron" unicode="f&#x16b;" horiz-adv-x="1634" 
d="M88 856q25 8 44 22.5t29.5 30t19.5 43.5t13 47.5t10.5 56.5t10.5 58q41 205 127 311.5t211 106.5q70 0 121 -41t51 -102q0 -38 -23 -63.5t-57 -25.5q-57 0 -84 70q-22 55 -72 55q-66 0 -109.5 -90.5t-43.5 -294.5v-153q135 3 223 8l16 -35l-16 -76h-223v-401
q0 -108 4 -190q3 -64 26.5 -94.5t88.5 -53.5l-6 -47q-72 6 -185 6q-92 0 -164 -6l-6 47q54 22 70.5 51.5t21.5 96.5q7 73 7 198v303q0 58 -16.5 81.5t-80.5 37.5zM643 840l6 45q164 4 256 10q-2 -42 -6 -114t-6 -128t-2 -127v-233q0 -95 43.5 -144t118.5 -49q109 0 173 70
t64 184v144q0 129 -6 192q-4 62 -26 94t-72 56l6 45q164 4 256 10q-2 -42 -6 -114t-6 -128t-2 -127v-88q0 -121 6 -184q4 -62 24 -84t76 -33v-43q-60 -28 -100.5 -55.5t-91.5 -71.5l-43 10l-7 189l-2 2q-38 -88 -112.5 -144.5t-163.5 -56.5q-158 0 -232 121q-40 70 -40 186
v224q0 118 -7 192q-6 63 -27 95t-71 55zM821 1264v110h553v-110h-553z" />
    <glyph glyph-name="fgbreve" unicode="f&#x11f;" horiz-adv-x="1507" 
d="M88 856q25 8 44 22.5t29.5 30t19.5 43.5t13 47.5t10.5 56.5t10.5 58q41 205 127 311.5t211 106.5q70 0 121 -41t51 -102q0 -38 -23 -63.5t-57 -25.5q-57 0 -84 70q-22 55 -72 55q-66 0 -109.5 -90.5t-43.5 -294.5v-153q135 3 223 8l16 -35l-16 -76h-223v-401
q0 -108 4 -190q3 -64 26.5 -94.5t88.5 -53.5l-6 -47q-72 6 -185 6q-92 0 -164 -6l-6 47q54 22 70.5 51.5t21.5 96.5q7 73 7 198v303q0 58 -16.5 81.5t-80.5 37.5zM621 -322q0 73 38 133t125 119q-68 24 -107.5 74.5t-39.5 120.5q0 134 141 242q-69 92 -69 217
q0 144 98.5 244t234.5 100q60 0 134.5 -20.5t132.5 -20.5q98 0 194 8l17 -35l-17 -76h-192q67 -75 67 -200q0 -149 -95 -246.5t-232 -97.5q-130 0 -220 75q-77 -60 -77 -143q0 -45 35.5 -72t103.5 -30l248 -9q144 -4 219.5 -80.5t75.5 -197.5q0 -143 -129.5 -244.5
t-337.5 -101.5q-168 0 -258 66.5t-90 174.5zM754 -287q0 -71 62 -116.5t185 -45.5q164 0 243 57.5t79 139.5q0 74 -54 116t-165 42q-166 0 -250 6q-100 -94 -100 -199zM797 1516l49 4q35 -160 84 -230.5t125 -70.5t125 70.5t84 230.5l49 -4q-6 -222 -76.5 -331.5
t-181.5 -109.5t-181.5 109.5t-76.5 331.5zM866 596q0 -133 49 -203.5t136 -70.5q172 0 172 251q0 127 -50 200t-135 73q-78 0 -125 -63t-47 -187z" />
    <glyph glyph-name="febreve" unicode="f&#x115;" horiz-adv-x="1527" 
d="M88 856q25 8 44 22.5t29.5 30t19.5 43.5t13 47.5t10.5 56.5t10.5 58q41 205 127 311.5t211 106.5q70 0 121 -41t51 -102q0 -38 -23 -63.5t-57 -25.5q-57 0 -84 70q-22 55 -72 55q-66 0 -109.5 -90.5t-43.5 -294.5v-153q135 3 223 8l16 -35l-16 -76h-223v-401
q0 -108 4 -190q3 -64 26.5 -94.5t88.5 -53.5l-6 -47q-72 6 -185 6q-92 0 -164 -6l-6 47q54 22 70.5 51.5t21.5 96.5q7 73 7 198v303q0 58 -16.5 81.5t-80.5 37.5zM645 434q0 213 129 356.5t320 143.5q148 0 247 -97.5t99 -244.5q0 -31 -4 -47h-631q-4 -25 -4 -78
q0 -156 83 -255t208 -99q98 0 164.5 37.5t129.5 128.5l50 -31q-49 -125 -142.5 -203t-222.5 -78q-124 0 -222.5 64.5t-151 171t-52.5 231.5zM813 1516l49 4q35 -160 84 -230.5t125 -70.5t125 70.5t84 230.5l49 -4q-6 -222 -76.5 -331.5t-181.5 -109.5t-181.5 109.5
t-76.5 331.5zM819 627h441q-1 101 -61 158t-150 57t-150 -60t-80 -155z" />
    <glyph glyph-name="fhcircumflex" unicode="f&#x125;" horiz-adv-x="1636" 
d="M88 856q30 9 49.5 26t30 44.5t16 52t12.5 66.5t13 69q45 197 149 307.5t273 110.5q102 0 164 -47q35 24 73 55l43 -16q-10 -174 -10 -371l-2 -403l2 -2q42 81 115 133.5t160 52.5q75 0 135.5 -33.5t97.5 -93.5q43 -72 43 -180v-236q0 -137 4 -198q5 -67 22 -96.5
t72 -51.5l-6 -47q-108 6 -164 6q-55 0 -163 -6l-7 47q55 22 72.5 52t22.5 96q4 61 4 198v217q0 87 -49 140t-130 53q-104 0 -166.5 -64t-62.5 -164v-182q0 -137 4 -198q5 -67 22 -96.5t72 -51.5l-6 -47q-108 6 -164 6q-55 0 -163 -6l-7 47q55 22 72.5 52t22.5 96q4 61 4 198
v653q0 130 -4 191q-12 190 -189 190q-103 0 -166 -90t-63 -295v-153q135 3 223 8l16 -35l-16 -76h-223v-401q0 -108 4 -190q3 -64 26.5 -94.5t88.5 -53.5l-6 -47q-72 6 -185 6q-92 0 -164 -6l-6 47q54 22 70.5 51.5t21.5 96.5q7 73 7 198v303q0 58 -16.5 81.5t-80.5 37.5z
M502 1620l248 207q46 37 79 37q31 0 80 -39l248 -205l-29 -43l-299 121l-299 -121z" />
    <glyph glyph-name="fhbar" unicode="f&#x127;" horiz-adv-x="1636" 
d="M88 856q30 9 49.5 26t30 44.5t16 52t12.5 66.5t13 69q45 197 149 307.5t273 110.5q102 0 164 -47q35 24 73 55l43 -16q-10 -161 -10 -340h344v-99h-346v-335l2 -2q42 81 115 133.5t160 52.5q75 0 135.5 -33.5t97.5 -93.5q43 -72 43 -180v-236q0 -137 4 -198
q5 -67 22 -96.5t72 -51.5l-6 -47q-108 6 -164 6q-55 0 -163 -6l-7 47q55 22 72.5 52t22.5 96q4 61 4 198v217q0 87 -49 140t-130 53q-104 0 -166.5 -64t-62.5 -164v-182q0 -137 4 -198q5 -67 22 -96.5t72 -51.5l-6 -47q-108 6 -164 6q-55 0 -163 -6l-7 47q55 22 72.5 52
t22.5 96q4 61 4 198v694h-107v99h105q0 35 -2 51q-18 190 -189 190q-49 0 -88 -19.5t-71 -62.5t-50 -120t-18 -183v-153q131 3 221 8l16 -35l-16 -76h-223v-401q0 -108 4 -190q3 -64 26.5 -94.5t88.5 -53.5l-6 -47q-72 6 -185 6q-92 0 -164 -6l-6 47q54 22 70.5 51.5
t21.5 96.5q7 73 7 198v303q0 58 -16.5 81.5t-80.5 37.5z" />
    <glyph glyph-name="fitilde" unicode="f&#x129;" horiz-adv-x="1202" 
d="M88 856q25 8 44 22.5t29.5 30t19.5 43.5t13 47.5t10.5 56.5t10.5 58q41 205 127 311.5t211 106.5q70 0 121 -41t51 -102q0 -38 -23 -63.5t-57 -25.5q-57 0 -84 70q-22 55 -72 55q-66 0 -109.5 -90.5t-43.5 -294.5v-153q135 3 223 8l16 -35l-16 -76h-223v-401
q0 -108 4 -190q3 -64 26.5 -94.5t88.5 -53.5l-6 -47q-72 6 -185 6q-92 0 -164 -6l-6 47q54 22 70.5 51.5t21.5 96.5q7 73 7 198v303q0 58 -16.5 81.5t-80.5 37.5zM643 1157q89 139 203 139q56 0 123 -30q7 -3 24.5 -11t22.5 -10.5t17.5 -7t19.5 -6t17.5 -3t21.5 -1.5
q64 0 129 51l34 -37q-89 -139 -200 -139q-53 0 -123 31q-5 2 -19 8.5t-17.5 8l-14 6t-15 6t-13 4t-14.5 3t-14 1.5t-16 1q-64 0 -129 -51zM762 752v43q70 32 116.5 62.5t100.5 80.5l43 -16q-10 -174 -10 -371v-154q0 -82 4 -204q2 -65 20 -95t74 -53l-6 -47q-108 6 -164 6
t-164 -6l-6 47q55 22 72 51.5t22 96.5q4 61 4 204v45q0 132 -4 193q-4 62 -24.5 84t-77.5 33z" />
    <glyph glyph-name="fibreve" unicode="f&#x12d;" horiz-adv-x="1091" 
d="M88 856q25 8 44 22.5t29.5 30t19.5 43.5t13 47.5t10.5 56.5t10.5 58q41 202 133 310t219 108q71 0 128 -41.5t57 -101.5q0 -29 -14.5 -52t-37.5 -32q54 -86 138 -86q76 0 125 70.5t84 230.5l49 -4q-6 -222 -76.5 -331.5t-181.5 -109.5q-180 0 -244 268q-9 38 -32.5 60
t-57.5 22q-73 0 -120.5 -90.5t-47.5 -294.5v-153l315 4q78 2 126 12t91 35l43 -16q-10 -174 -10 -371v-154q0 -143 4 -204q5 -67 22 -96.5t72 -51.5l-6 -47q-108 6 -164 6q-55 0 -163 -6l-7 47q55 22 72.5 52t22.5 96q4 61 4 204v78q0 132 -4 193q-3 46 -15 68.5t-45.5 35
t-99.5 12.5h-258v-401q0 -108 4 -190q3 -64 26.5 -94.5t88.5 -53.5l-6 -47q-72 6 -185 6q-92 0 -164 -6l-6 47q54 22 70.5 51.5t21.5 96.5q7 73 7 198v303q0 58 -16.5 81.5t-80.5 37.5z" />
    <glyph glyph-name="fij" unicode="f&#x133;" horiz-adv-x="1599" 
d="M88 856q30 9 49.5 26t30 44.5t16 52t12.5 66.5t13 69q101 418 422 418q113 0 188.5 -51t75.5 -127q0 -41 -24.5 -67.5t-67.5 -26.5q-74 0 -121 86q-42 79 -117 79q-104 0 -166.5 -89.5t-62.5 -295.5v-153h315q129 0 217 51l43 -16q-10 -174 -10 -371v-154q0 -82 4 -204
q2 -65 20 -95t74 -53l-6 -47q-108 6 -164 6q-55 0 -163 -6l-7 47q55 22 72.5 52t22.5 96q4 61 4 204v78q0 132 -4 193q-3 46 -15 68.5t-45.5 35t-99.5 12.5h-258v-401q0 -108 4 -190q3 -64 26.5 -94.5t88.5 -53.5l-6 -47q-72 6 -185 6q-92 0 -164 -6l-6 47q54 22 70.5 51.5
t21.5 96.5q7 73 7 198v303q0 58 -16.5 81.5t-80.5 37.5zM1155 -504q73 95 100 189.5t27 251.5v505q0 130 -6 193q-4 62 -24 84t-76 33v43q72 35 118 65t99 78l43 -16q-11 -191 -11 -371v-518q0 -142 2 -205q-12 -114 -76 -210.5t-161 -158.5zM1239 1389q0 49 32.5 81.5
t82.5 32.5t82 -32.5t32 -81.5q0 -50 -32.5 -82.5t-81.5 -32.5q-50 0 -82.5 33t-32.5 82z" />
    <glyph glyph-name="fjcircumflex" unicode="f&#x135;" horiz-adv-x="1138" 
d="M88 856q25 8 44 22.5t29.5 30t19.5 43.5t13 47.5t10.5 56.5t10.5 58q41 205 127 311.5t211 106.5q70 0 121 -41t51 -102q0 -38 -23 -63.5t-57 -25.5q-57 0 -84 70q-22 55 -72 55q-66 0 -109.5 -90.5t-43.5 -294.5v-153q135 3 223 8l16 -35l-16 -76h-223v-401
q0 -108 4 -190q3 -64 26.5 -94.5t88.5 -53.5l-6 -47q-72 6 -185 6q-92 0 -164 -6l-6 47q54 22 70.5 51.5t21.5 96.5q7 73 7 198v303q0 58 -16.5 81.5t-80.5 37.5zM637 1061l199 420q20 49 59 49t59 -49l199 -420l-43 -27l-215 275l-215 -275zM694 -504q73 95 100 189.5
t27 251.5v505q0 130 -6 193q-4 62 -24 84t-76 33v43q72 35 118 65t99 78l43 -16q-10 -174 -10 -371v-518q0 -142 2 -205q-12 -113 -76.5 -210t-161.5 -159z" />
    <glyph glyph-name="fldot" unicode="f&#x140;" horiz-adv-x="1323" 
d="M88 856q30 9 49.5 26t30 44.5t16 52t12.5 66.5t13 69q45 197 149 307.5t273 110.5q102 0 164 -47q35 24 73 55l43 -16q-10 -174 -10 -371v-756q0 -143 4 -204q0 -64 19 -94.5t75 -53.5l-6 -47q-108 6 -164 6q-55 0 -163 -6l-7 47q55 22 72.5 52t22.5 96q4 61 4 204v647
q0 130 -4 191q-12 190 -189 190q-103 0 -166 -90t-63 -295v-153q135 3 223 8l16 -35l-16 -76h-223v-401q0 -108 4 -190q3 -64 26.5 -94.5t88.5 -53.5l-6 -47q-72 6 -185 6q-92 0 -164 -6l-6 47q54 22 70.5 51.5t21.5 96.5q7 73 7 198v303q0 58 -16.5 81.5t-80.5 37.5z
M1094 479q0 50 32.5 82.5t81.5 32.5q50 0 82.5 -33t32.5 -82t-32.5 -81.5t-82.5 -32.5t-82 32.5t-32 81.5z" />
    <glyph glyph-name="fobreve" unicode="f&#x14f;" horiz-adv-x="1636" 
d="M88 856q25 8 44 22.5t29.5 30t19.5 43.5t13 47.5t10.5 56.5t10.5 58q41 205 127 311.5t211 106.5q70 0 121 -41t51 -102q0 -38 -23 -63.5t-57 -25.5q-57 0 -84 70q-22 55 -72 55q-66 0 -109.5 -90.5t-43.5 -294.5v-153q135 3 223 8l16 -35l-16 -76h-223v-401
q0 -108 4 -190q3 -64 26.5 -94.5t88.5 -53.5l-6 -47q-72 6 -185 6q-92 0 -164 -6l-6 47q54 22 70.5 51.5t21.5 96.5q7 73 7 198v303q0 58 -16.5 81.5t-80.5 37.5zM645 451q0 199 133.5 341t321.5 142q129 0 233.5 -63.5t163.5 -174.5t59 -245q0 -132 -59.5 -243.5t-162 -176
t-224.5 -64.5q-200 0 -332.5 139.5t-132.5 344.5zM813 469q0 -189 83 -296t220 -107q122 0 197.5 98t75.5 274q0 180 -83.5 291t-211.5 111q-122 0 -201.5 -97.5t-79.5 -273.5zM840 1516l49 4q35 -160 84 -230.5t125 -70.5t125 70.5t84 230.5l49 -4q-6 -222 -76.5 -331.5
t-181.5 -109.5t-181.5 109.5t-76.5 331.5z" />
    <glyph glyph-name="fscircumflex" unicode="f&#x15d;" horiz-adv-x="1257" 
d="M88 856q25 8 44 22.5t29.5 30t19.5 43.5t13 47.5t10.5 56.5t10.5 58q41 205 127 311.5t211 106.5q70 0 121 -41t51 -102q0 -38 -23 -63.5t-57 -25.5q-57 0 -84 70q-22 55 -72 55q-66 0 -109.5 -90.5t-43.5 -294.5v-153q135 3 223 8l16 -35l-16 -76h-223v-401
q0 -108 4 -190q3 -64 26.5 -94.5t88.5 -53.5l-6 -47q-72 6 -185 6q-92 0 -164 -6l-6 47q54 22 70.5 51.5t21.5 96.5q7 73 7 198v303q0 58 -16.5 81.5t-80.5 37.5zM625 150q0 36 20 58.5t55 22.5q67 0 88 -79q27 -99 123 -99q67 0 107.5 34t40.5 103q0 63 -40 108.5
t-140 96.5q-120 60 -173 127.5t-53 151.5q0 109 79.5 183.5t189.5 74.5q59 0 100.5 -13.5t83.5 -46.5q53 -43 53 -100q0 -32 -20 -53t-52 -21q-57 0 -86 70q-19 41 -42.5 59.5t-67.5 18.5q-51 0 -85 -33t-34 -84q0 -60 42.5 -109t150.5 -102q119 -58 171 -124.5t52 -164.5
q0 -116 -80.5 -189t-204.5 -73q-78 0 -126 14.5t-91 51.5q-61 51 -61 117zM672 1061l198 420q20 49 60 49q39 0 59 -49l199 -420l-43 -27l-215 275l-215 -275z" />
    <glyph glyph-name="fubreve" unicode="f&#x16d;" horiz-adv-x="1634" 
d="M88 856q25 8 44 22.5t29.5 30t19.5 43.5t13 47.5t10.5 56.5t10.5 58q41 205 127 311.5t211 106.5q70 0 121 -41t51 -102q0 -38 -23 -63.5t-57 -25.5q-57 0 -84 70q-22 55 -72 55q-66 0 -109.5 -90.5t-43.5 -294.5v-153q135 3 223 8l16 -35l-16 -76h-223v-401
q0 -108 4 -190q3 -64 26.5 -94.5t88.5 -53.5l-6 -47q-72 6 -185 6q-92 0 -164 -6l-6 47q54 22 70.5 51.5t21.5 96.5q7 73 7 198v303q0 58 -16.5 81.5t-80.5 37.5zM643 840l6 45q164 4 256 10q-2 -42 -6 -114t-6 -128t-2 -127v-233q0 -95 43.5 -144t118.5 -49q109 0 173 70
t64 184v144q0 129 -6 192q-4 62 -26 94t-72 56l6 45q164 4 256 10q-2 -42 -6 -114t-6 -128t-2 -127v-88q0 -121 6 -184q4 -62 24 -84t76 -33v-43q-60 -28 -100.5 -55.5t-91.5 -71.5l-43 10l-7 189l-2 2q-38 -88 -112.5 -144.5t-163.5 -56.5q-158 0 -232 121q-40 70 -40 186
v224q0 118 -7 192q-6 63 -27 95t-71 55zM829 1516l50 4q35 -161 83.5 -231t124.5 -70t125 70.5t84 230.5l50 -4q-6 -222 -77 -331.5t-182 -109.5t-181.5 109.5t-76.5 331.5z" />
    <glyph glyph-name="fflslash" unicode="ff&#x142;" horiz-adv-x="1691" 
d="M88 856q25 8 43.5 22.5t29 30.5t18.5 43t12 47.5t9.5 56.5t10.5 58q39 191 137.5 304.5t237.5 113.5q86 0 137 -39t51 -94q0 -35 -20.5 -56.5t-51.5 -21.5q-29 0 -48.5 13t-41.5 42q-23 28 -41 38.5t-49 10.5q-186 0 -186 -385v-153h291q29 0 49 7t32 16t20.5 32.5
t12 41.5t11.5 59.5t14 70.5q43 193 152.5 305.5t277.5 112.5q110 0 172 -47q42 29 74 55l43 -16q-10 -174 -10 -371v-393l190 112l47 -79l-237 -140v-256q0 -143 4 -204q5 -67 22 -96.5t72 -51.5l-6 -47q-108 6 -164 6t-164 -6l-6 47q55 22 72 51.5t22 96.5q4 61 4 204v172
l-178 -104l-45 80l223 131v368q0 130 -4 191q-12 190 -197 190q-237 0 -237 -385v-153q135 3 223 8l17 -35l-17 -76h-223v-401q0 -108 4 -190q3 -64 26.5 -94.5t88.5 -53.5l-6 -47q-72 6 -185 6q-92 0 -164 -6l-6 47q54 22 70.5 51.5t21.5 96.5q7 74 7 198v219
q0 51 -2.5 78.5t-8.5 49.5t-21 30.5t-34.5 12t-54.5 3.5h-293v-401q0 -108 4 -190q3 -64 26.5 -94.5t88.5 -53.5l-6 -47q-72 6 -185 6q-92 0 -164 -6l-6 47q54 22 70.5 51.5t21.5 96.5q7 73 7 198v303q0 58 -16.5 81.5t-80.5 37.5z" />
    <glyph glyph-name="ffthorn" unicode="ff&#xfe;" horiz-adv-x="2205" 
d="M88 856q25 8 43.5 22.5t29 30.5t18.5 43t12 47.5t9.5 56.5t10.5 58q39 191 137.5 304.5t237.5 113.5q86 0 137 -39t51 -94q0 -35 -20.5 -56.5t-51.5 -21.5q-29 0 -48.5 13t-41.5 42q-23 28 -41 38.5t-49 10.5q-186 0 -186 -385v-153h291q22 0 39 4t28.5 9.5t20.5 18.5
t14.5 24t11 33t8.5 39t8.5 48t10.5 55q42 195 146 304.5t274 109.5q102 0 164 -47q35 24 73 55l43 -16q-10 -174 -10 -371l-2 -403l2 -2q42 80 117 133t160 53q157 0 271 -131.5t114 -343.5q0 -108 -34.5 -201t-91.5 -156t-132.5 -99t-157.5 -36q-154 0 -246 74
q0 -328 4 -387q5 -64 27.5 -94.5t87.5 -53.5l-6 -47q-108 6 -185 6q-55 0 -163 -6l-6 47q55 22 72 51.5t22 96.5q4 61 4 199v1191q0 130 -4 191q-12 190 -189 190q-49 0 -88 -19.5t-71 -62.5t-50 -120t-18 -183v-153q131 3 221 8l17 -35l-17 -76h-223v-401q0 -108 4 -190
q3 -64 26.5 -94.5t88.5 -53.5l-6 -47q-72 6 -185 6q-92 0 -164 -6l-6 47q54 22 70.5 51.5t21.5 96.5q7 74 7 198v219q0 51 -2.5 78.5t-8.5 49.5t-21 30.5t-34.5 12t-54.5 3.5h-293v-401q0 -108 4 -190q3 -64 26.5 -94.5t88.5 -53.5l-6 -47q-72 6 -185 6q-92 0 -164 -6l-6 47
q54 22 70.5 51.5t21.5 96.5q7 73 7 198v303q0 58 -16.5 81.5t-80.5 37.5zM1458 332q0 -131 70 -203t182 -72q115 0 187.5 87t72.5 251q0 190 -80 297t-200 107q-107 0 -169.5 -63t-62.5 -163v-241z" />
    <glyph glyph-name="f_f_b" unicode="ffb" horiz-adv-x="2199" 
d="M88 856q25 8 43.5 22.5t29 30.5t18.5 43t12 47.5t9.5 56.5t10.5 58q39 191 137.5 304.5t237.5 113.5q86 0 137 -39t51 -94q0 -35 -20.5 -56.5t-51.5 -21.5q-29 0 -48.5 13t-41.5 42q-23 28 -41 38.5t-49 10.5q-184 0 -184 -385v-153h289q25 0 43.5 3.5t31.5 14.5
t20.5 20.5t15 33.5t10.5 40t10 53.5t12 61.5q42 196 145 307t273 111q102 0 164 -47q35 24 73 55l43 -16q-10 -174 -10 -371v-412l2 -2q41 87 117 141t168 54q157 0 263 -125.5t106 -319.5q0 -113 -36.5 -211.5t-99 -166t-146.5 -106t-177 -38.5q-95 0 -189.5 22.5
t-150.5 59.5v995q0 130 -4 191q-12 190 -189 190q-49 0 -88 -19.5t-71 -62.5t-50 -120t-18 -183v-153q131 3 221 8l17 -35l-17 -76h-223v-401q0 -108 4 -190q3 -64 26.5 -94.5t88.5 -53.5l-6 -47q-72 6 -185 6q-92 0 -164 -6l-6 47q54 22 70.5 51.5t21.5 96.5q7 74 7 198
v219q0 51 -2.5 78.5t-8.5 49.5t-21 30.5t-34.5 12t-54.5 3.5h-293v-401q0 -108 4 -190q3 -64 26.5 -94.5t88.5 -53.5l-6 -47q-72 6 -185 6q-92 0 -164 -6l-6 47q54 22 70.5 51.5t21.5 96.5q7 73 7 198v303q0 58 -16.5 81.5t-80.5 37.5zM1458 281q0 -220 211 -220
q135 0 213 102.5t78 270.5q0 167 -71.5 266t-188.5 99q-116 0 -179 -71t-63 -185v-262z" />
    <glyph glyph-name="f_f_h" unicode="ffh" horiz-adv-x="2193" 
d="M88 856q25 8 43.5 22.5t29 30.5t18.5 43t12 47.5t9.5 56.5t10.5 58q39 191 137.5 304.5t237.5 113.5q86 0 137 -39t51 -94q0 -35 -20.5 -56.5t-51.5 -21.5q-29 0 -48.5 13t-41.5 42q-23 28 -41 38.5t-49 10.5q-186 0 -186 -385v-153h291q22 0 39 3.5t28.5 9t20.5 18
t14.5 23.5t11 32.5t8.5 38t8.5 47.5t10.5 55q42 196 146 307t274 111q102 0 164 -47q35 24 73 55l43 -16q-10 -174 -10 -371l-2 -403l2 -2q42 81 115 133.5t160 52.5q75 0 135.5 -33.5t97.5 -93.5q43 -72 43 -180v-236q0 -137 4 -198q5 -67 22 -96.5t72 -51.5l-6 -47
q-108 6 -164 6q-55 0 -163 -6l-7 47q55 22 72.5 52t22.5 96q4 61 4 198v217q0 87 -48.5 140t-129.5 53q-104 0 -167 -64t-63 -164v-182q0 -137 4 -198q5 -67 22 -96.5t72 -51.5l-6 -47q-108 6 -164 6q-55 0 -163 -6l-6 47q55 22 72 51.5t22 96.5q4 61 4 198v653
q0 130 -4 191q-12 190 -189 190q-103 0 -166 -90t-63 -295v-153q135 3 223 8l17 -35l-17 -76h-223v-401q0 -108 4 -190q3 -64 26.5 -94.5t88.5 -53.5l-6 -47q-72 6 -185 6q-92 0 -164 -6l-6 47q54 22 70.5 51.5t21.5 96.5q7 74 7 198v219q0 51 -2.5 78.5t-8.5 49.5t-21 30.5
t-34.5 12t-54.5 3.5h-293v-401q0 -108 4 -190q3 -64 26.5 -94.5t88.5 -53.5l-6 -47q-72 6 -185 6q-92 0 -164 -6l-6 47q54 22 70.5 51.5t21.5 96.5q7 73 7 198v303q0 58 -16.5 81.5t-80.5 37.5z" />
    <glyph glyph-name="f_f_j" unicode="ffj" horiz-adv-x="1632" 
d="M88 856q25 8 43.5 22.5t29 30.5t18.5 43t12 47.5t9.5 56.5t10.5 58q39 191 137.5 304.5t237.5 113.5q86 0 137 -39t51 -94q0 -35 -20.5 -56.5t-51.5 -21.5q-29 0 -48.5 13t-41.5 42q-23 28 -41 38.5t-49 10.5q-186 0 -186 -385v-153h291q25 0 43 3.5t31 14t20.5 20.5
t14 32.5t10 40t10 53t12.5 61.5q90 420 420 420q113 0 188.5 -51t75.5 -127q0 -41 -24.5 -67.5t-67.5 -26.5q-74 0 -121 86q-42 79 -117 79q-104 0 -166.5 -89.5t-62.5 -295.5v-153h315q129 0 217 51l43 -16q-10 -174 -10 -371v-518q0 -144 2 -205q-12 -114 -76 -210.5
t-161 -158.5l-35 37q73 95 100 189.5t27 251.5v538q0 132 -4 193q-3 46 -15 68.5t-45.5 35t-99.5 12.5h-258v-401q0 -108 4 -190q3 -64 26.5 -94.5t88.5 -53.5l-6 -47q-72 6 -185 6q-92 0 -164 -6l-6 47q54 22 70.5 51.5t21.5 96.5q7 74 7 198v219q0 51 -2.5 78.5t-8.5 49.5
t-21 30.5t-34.5 12t-54.5 3.5h-293v-401q0 -108 4 -190q3 -64 26.5 -94.5t88.5 -53.5l-6 -47q-72 6 -185 6q-92 0 -164 -6l-6 47q54 22 70.5 51.5t21.5 96.5q7 73 7 198v303q0 58 -16.5 81.5t-80.5 37.5z" />
    <glyph glyph-name="f_f_k" unicode="ffk" horiz-adv-x="2054" 
d="M88 856q25 8 43.5 22.5t29 30.5t18.5 43t12 47.5t9.5 56.5t10.5 58q39 191 137.5 304.5t237.5 113.5q86 0 137 -39t51 -94q0 -35 -20.5 -56.5t-51.5 -21.5q-29 0 -48.5 13t-41.5 42q-23 28 -41 38.5t-49 10.5q-186 0 -186 -385v-153h291q22 0 39 3.5t28.5 9t20.5 18
t14.5 23.5t11 32.5t8.5 38t8.5 47.5t10.5 55q42 196 146 307t274 111q102 0 164 -47q35 24 73 55l43 -16q-10 -174 -10 -371v-756q0 -143 4 -204q5 -67 22 -96.5t72 -51.5l-6 -47q-108 6 -164 6q-55 0 -163 -6l-6 47q55 22 72 51.5t22 96.5q4 61 4 204v647q0 130 -4 191
q-12 190 -189 190q-103 0 -166 -90t-63 -295v-153q135 3 223 8l17 -35l-17 -76h-223v-401q0 -108 4 -190q3 -64 26.5 -94.5t88.5 -53.5l-6 -47q-72 6 -185 6q-92 0 -164 -6l-6 47q54 22 70.5 51.5t21.5 96.5q7 74 7 198v219q0 51 -2.5 78.5t-8.5 49.5t-21 30.5t-34.5 12
t-54.5 3.5h-293v-401q0 -108 4 -190q3 -64 26.5 -94.5t88.5 -53.5l-6 -47q-72 6 -185 6q-92 0 -164 -6l-6 47q54 22 70.5 51.5t21.5 96.5q7 73 7 198v303q0 58 -16.5 81.5t-80.5 37.5zM1485 496l63 57q125 114 163 157t38 70q0 35 -57 60l8 47q59 -6 141 -6q64 0 152 6
l6 -47q-38 -23 -73.5 -51.5t-102.5 -92.5q-19 -17 -84.5 -79t-106.5 -99q89 -131 138 -197.5t124 -154.5q50 -58 85.5 -84t78.5 -43v-43q-41 -14 -69 -14q-58 0 -108 24.5t-109 91.5q-56 65 -105 131t-75.5 105.5t-106.5 161.5z" />
    <glyph glyph-name="ffagrave" unicode="ff&#xe0;" horiz-adv-x="1951" 
d="M88 856q25 8 43.5 22.5t29 30.5t18.5 43t12 47.5t9.5 56.5t10.5 58q39 191 137.5 304.5t237.5 113.5q86 0 137 -39t51 -94q0 -35 -20.5 -56.5t-51.5 -21.5q-29 0 -48.5 13t-41.5 42q-23 28 -41 38.5t-49 10.5q-186 0 -186 -385v-153h291q22 0 39 4t29 8.5t22 18t15.5 23
t11.5 33t9 37.5t9 48.5t10 54.5q40 204 126 311t212 107q70 0 121 -41t51 -102q0 -38 -23 -63.5t-57 -25.5q-57 0 -84 70q-22 55 -71 55q-31 0 -57.5 -19.5t-48.5 -62t-35 -120t-13 -183.5v-153q135 3 223 8l17 -35l-17 -76h-223v-401q0 -108 4 -190q3 -64 26.5 -94.5
t88.5 -53.5l-6 -47q-72 6 -185 6q-92 0 -164 -6l-6 47q54 22 70.5 51.5t21.5 96.5q7 74 7 198v219q0 51 -2.5 78.5t-8.5 49.5t-21 30.5t-34.5 12t-54.5 3.5h-293v-401q0 -108 4 -190q3 -64 26.5 -94.5t88.5 -53.5l-6 -47q-72 6 -185 6q-92 0 -164 -6l-6 47q54 22 70.5 51.5
t21.5 96.5q7 73 7 198v303q0 58 -16.5 81.5t-80.5 37.5zM1198 166q0 68 32.5 116t96.5 89q112 72 315 125v100q0 91 -43 147q-44 58 -129 58q-50 0 -95.5 -20t-100.5 -64l-39 65q32 59 104.5 103.5t157.5 44.5q154 0 227 -107q27 -38 44.5 -97t17.5 -124v-196q0 -124 4 -187
q6 -104 102 -149l-26 -82q-100 4 -149.5 44.5t-63.5 114.5h-4q-39 -90 -102 -133t-136 -43q-96 0 -154.5 55.5t-58.5 139.5zM1343 201q0 -45 26 -75t77 -30q71 0 133.5 58.5t62.5 156.5v113q-17 -5 -118 -47q-181 -77 -181 -176zM1350 1446q0 36 21 60t56 24q76 0 103 -109
l94 -391l-47 -20l-197 346q-30 52 -30 90z" />
    <glyph glyph-name="ffacircumflex" unicode="ff&#xe2;" horiz-adv-x="1951" 
d="M88 856q25 8 43.5 22.5t29 30.5t18.5 43t12 47.5t9.5 56.5t10.5 58q39 191 137.5 304.5t237.5 113.5q86 0 137 -39t51 -94q0 -35 -20.5 -56.5t-51.5 -21.5q-29 0 -48.5 13t-41.5 42q-23 28 -41 38.5t-49 10.5q-186 0 -186 -385v-153h291q22 0 39 4t29 8.5t22 18t15.5 23
t11.5 33t9 37.5t9 48.5t10 54.5q40 204 126 311t212 107q70 0 121 -41t51 -102q0 -38 -23 -63.5t-57 -25.5q-57 0 -84 70q-22 55 -71 55q-31 0 -57.5 -19.5t-48.5 -62t-35 -120t-13 -183.5v-153q135 3 223 8l17 -35l-17 -76h-223v-401q0 -108 4 -190q3 -64 26.5 -94.5
t88.5 -53.5l-6 -47q-72 6 -185 6q-92 0 -164 -6l-6 47q54 22 70.5 51.5t21.5 96.5q7 74 7 198v219q0 51 -2.5 78.5t-8.5 49.5t-21 30.5t-34.5 12t-54.5 3.5h-293v-401q0 -108 4 -190q3 -64 26.5 -94.5t88.5 -53.5l-6 -47q-72 6 -185 6q-92 0 -164 -6l-6 47q54 22 70.5 51.5
t21.5 96.5q7 73 7 198v303q0 58 -16.5 81.5t-80.5 37.5zM1198 166q0 68 32.5 116t96.5 89q112 72 315 125v100q0 91 -43 147q-44 58 -129 58q-50 0 -95.5 -20t-100.5 -64l-39 65q32 59 104.5 103.5t157.5 44.5q154 0 227 -107q27 -38 44.5 -97t17.5 -124v-196q0 -124 4 -187
q6 -104 102 -149l-26 -82q-100 4 -149.5 44.5t-63.5 114.5h-4q-39 -90 -102 -133t-136 -43q-96 0 -154.5 55.5t-58.5 139.5zM1270 1061l198 420q20 49 60 49q39 0 59 -49l199 -420l-43 -27l-215 275l-215 -275zM1343 201q0 -45 26 -75t77 -30q71 0 133.5 58.5t62.5 156.5
v113q-17 -5 -118 -47q-181 -77 -181 -176z" />
    <glyph glyph-name="ffatilde" unicode="ff&#xe3;" horiz-adv-x="1992" 
d="M88 856q25 8 43.5 22.5t29 30.5t18.5 43t12 47.5t9.5 56.5t10.5 58q39 191 137.5 304.5t237.5 113.5q86 0 137 -39t51 -94q0 -35 -20.5 -56.5t-51.5 -21.5q-29 0 -48.5 13t-41.5 42q-23 28 -41 38.5t-49 10.5q-186 0 -186 -385v-153h291q22 0 39 4t29 8.5t22 18t15.5 23
t11.5 33t9 37.5t9 48.5t10 54.5q40 204 126 311t212 107q70 0 121 -41t51 -102q0 -38 -23 -63.5t-57 -25.5q-57 0 -84 70q-22 55 -71 55q-31 0 -57.5 -19.5t-48.5 -62t-35 -120t-13 -183.5v-153q135 3 223 8l17 -35l-17 -76h-223v-401q0 -108 4 -190q3 -64 26.5 -94.5
t88.5 -53.5l-6 -47q-72 6 -185 6q-92 0 -164 -6l-6 47q54 22 70.5 51.5t21.5 96.5q7 74 7 198v219q0 51 -2.5 78.5t-8.5 49.5t-21 30.5t-34.5 12t-54.5 3.5h-293v-401q0 -108 4 -190q3 -64 26.5 -94.5t88.5 -53.5l-6 -47q-72 6 -185 6q-92 0 -164 -6l-6 47q54 22 70.5 51.5
t21.5 96.5q7 73 7 198v303q0 58 -16.5 81.5t-80.5 37.5zM1239 166q0 68 32.5 116t96.5 89q112 72 315 125v100q0 91 -43 147q-44 58 -129 58q-50 0 -95.5 -20t-100.5 -64l-39 65q32 59 104.5 103.5t157.5 44.5q154 0 227 -107q27 -38 44.5 -97t17.5 -124v-196q0 -124 4 -187
q6 -104 102 -149l-26 -82q-100 4 -149.5 44.5t-63.5 114.5h-4q-39 -90 -102 -133t-136 -43q-96 0 -154.5 55.5t-58.5 139.5zM1280 1219q89 139 203 139q53 0 123 -31q7 -3 24.5 -11t22.5 -10.5t17.5 -7t19.5 -6t17.5 -3t21.5 -1.5q64 0 129 51l34 -36q-90 -140 -200 -140
q-53 0 -123 31q-7 3 -24.5 11t-22.5 10.5t-17.5 7t-19.5 6t-17.5 3t-21.5 1.5q-64 0 -129 -51zM1384 201q0 -45 26 -75t77 -30q71 0 133.5 58.5t62.5 156.5v113q-17 -5 -118 -47q-181 -77 -181 -176z" />
    <glyph glyph-name="ffaring" unicode="ff&#xe5;" horiz-adv-x="1972" 
d="M88 856q25 8 43.5 22.5t29 30.5t18.5 43t12 47.5t9.5 56.5t10.5 58q39 191 137.5 304.5t237.5 113.5q86 0 137 -39t51 -94q0 -35 -20.5 -56.5t-51.5 -21.5q-29 0 -48.5 13t-41.5 42q-23 28 -41 38.5t-49 10.5q-186 0 -186 -385v-153h291q22 0 39 4t29 8.5t22 18t15.5 23
t11.5 33t9 37.5t9 48.5t10 54.5q40 204 126 311t212 107q70 0 121 -41t51 -102q0 -38 -23 -63.5t-57 -25.5q-57 0 -84 70q-22 55 -71 55q-31 0 -57.5 -19.5t-48.5 -62t-35 -120t-13 -183.5v-153q135 3 223 8l17 -35l-17 -76h-223v-401q0 -108 4 -190q3 -64 26.5 -94.5
t88.5 -53.5l-6 -47q-72 6 -185 6q-92 0 -164 -6l-6 47q54 22 70.5 51.5t21.5 96.5q7 74 7 198v219q0 51 -2.5 78.5t-8.5 49.5t-21 30.5t-34.5 12t-54.5 3.5h-293v-401q0 -108 4 -190q3 -64 26.5 -94.5t88.5 -53.5l-6 -47q-72 6 -185 6q-92 0 -164 -6l-6 47q54 22 70.5 51.5
t21.5 96.5q7 73 7 198v303q0 58 -16.5 81.5t-80.5 37.5zM1219 166q0 68 32.5 116t96.5 89q112 72 315 125v100q0 91 -43 147q-44 58 -129 58q-90 0 -197 -84l-39 65q32 59 105 103.5t158 44.5q154 0 227 -107q61 -87 61 -221v-196q0 -124 4 -187q6 -103 103 -149l-27 -82
q-100 4 -149.5 44.5t-63.5 114.5h-4q-39 -90 -101.5 -133t-135.5 -43q-96 0 -154.5 55.5t-58.5 139.5zM1343 1317q0 88 61.5 150.5t149.5 62.5t150.5 -62.5t62.5 -150.5t-62.5 -149.5t-150.5 -61.5t-149.5 61.5t-61.5 149.5zM1364 201q0 -45 25.5 -75t76.5 -30
q71 0 134 58.5t63 156.5v113q-21 -7 -119 -47q-180 -76 -180 -176zM1432 1315q0 -53 34 -89t86 -36q54 0 89.5 36t35.5 89q0 54 -35.5 91.5t-89.5 37.5q-52 0 -86 -37t-34 -92z" />
    <glyph glyph-name="ffedieresis" unicode="ff&#xeb;" horiz-adv-x="2084" 
d="M88 856q25 8 43.5 22.5t29 30.5t18.5 43t12 47.5t9.5 56.5t10.5 58q39 191 137.5 304.5t237.5 113.5q86 0 137 -39t51 -94q0 -35 -20.5 -56.5t-51.5 -21.5q-29 0 -48.5 13t-41.5 42q-23 28 -41 38.5t-49 10.5q-186 0 -186 -385v-153h291q22 0 39 4t29 8.5t22 18t15.5 23
t11.5 33t9 37.5t9 48.5t10 54.5q40 204 126 311t212 107q70 0 121 -41t51 -102q0 -38 -23 -63.5t-57 -25.5q-57 0 -84 70q-22 55 -71 55q-31 0 -57.5 -19.5t-48.5 -62t-35 -120t-13 -183.5v-153q135 3 223 8l17 -35l-17 -76h-223v-401q0 -108 4 -190q3 -64 26.5 -94.5
t88.5 -53.5l-6 -47q-72 6 -185 6q-92 0 -164 -6l-6 47q54 22 70.5 51.5t21.5 96.5q7 74 7 198v219q0 51 -2.5 78.5t-8.5 49.5t-21 30.5t-34.5 12t-54.5 3.5h-293v-401q0 -108 4 -190q3 -64 26.5 -94.5t88.5 -53.5l-6 -47q-72 6 -185 6q-92 0 -164 -6l-6 47q54 22 70.5 51.5
t21.5 96.5q7 73 7 198v303q0 58 -16.5 81.5t-80.5 37.5zM1202 434q0 213 129 356.5t320 143.5q148 0 247 -97.5t99 -244.5q0 -31 -4 -47h-631q-4 -25 -4 -78q0 -156 83 -255t208 -99q98 0 165 37.5t130 128.5l49 -31q-49 -125 -142.5 -203t-222.5 -78q-124 0 -222.5 64.5
t-151 171t-52.5 231.5zM1364 1333q0 43 29.5 73t72.5 30q44 0 74.5 -30t30.5 -73q0 -44 -30.5 -74t-74.5 -30q-43 0 -72.5 30t-29.5 74zM1376 627h441q-1 101 -61 158t-150 57t-150 -60t-80 -155zM1710 1333q0 43 29.5 73t72.5 30q44 0 74.5 -30t30.5 -73q0 -44 -30.5 -74
t-74.5 -30q-43 0 -72.5 30t-29.5 74z" />
    <glyph glyph-name="ffiacute" unicode="ff&#xed;" horiz-adv-x="1648" 
d="M88 856q25 8 43.5 22.5t29 30.5t18.5 43t12 47.5t9.5 56.5t10.5 58q39 191 137.5 304.5t237.5 113.5q86 0 137 -39t51 -94q0 -35 -20.5 -56.5t-51.5 -21.5q-29 0 -48.5 13t-41.5 42q-23 28 -41 38.5t-49 10.5q-186 0 -186 -385v-153h291q22 0 39 4t29 9t21.5 18t15 23
t11.5 32.5t9 38t9 48t11 54.5q88 418 338 418q70 0 121 -41t51 -102q0 -38 -23 -63.5t-57 -25.5q-57 0 -84 70q-22 55 -71 55q-31 0 -57.5 -19.5t-48.5 -62t-35 -120t-13 -183.5v-153l315 4q78 2 126 12t91 35l43 -16q-10 -174 -10 -371v-154q0 -143 4 -204q5 -67 22 -96.5
t72 -51.5l-6 -47q-108 6 -164 6q-55 0 -163 -6l-6 47q55 22 72 51.5t22 96.5q4 61 4 204v78q0 132 -4 193q-3 46 -15 68.5t-45.5 35t-99.5 12.5h-258v-401q0 -108 4 -190q3 -64 26.5 -94.5t88.5 -53.5l-6 -47q-72 6 -185 6q-92 0 -164 -6l-6 47q54 22 70.5 51.5t21.5 96.5
q7 74 7 198v219q0 51 -2.5 78.5t-8.5 49.5t-21 30.5t-34.5 12t-54.5 3.5h-293v-401q0 -108 4 -190q3 -64 26.5 -94.5t88.5 -53.5l-6 -47q-72 6 -185 6q-92 0 -164 -6l-6 47q54 22 70.5 51.5t21.5 96.5q7 73 7 198v303q0 58 -16.5 81.5t-80.5 37.5zM1298 1030l95 391
q27 109 102 109q35 0 56.5 -24t21.5 -60q0 -37 -31 -90l-196 -346z" />
    <glyph glyph-name="ffigrave" unicode="ff&#xec;" horiz-adv-x="1648" 
d="M88 856q25 8 43.5 22.5t29 30.5t18.5 43t12 47.5t9.5 56.5t10.5 58q39 191 137.5 304.5t237.5 113.5q86 0 137 -39t51 -94q0 -35 -20.5 -56.5t-51.5 -21.5q-29 0 -48.5 13t-41.5 42q-23 28 -41 38.5t-49 10.5q-186 0 -186 -385v-153h291q29 0 49 7t31.5 16t19.5 32.5
t12 41.5t11 59t14 71q44 195 139.5 306.5t247.5 111.5q98 0 152 -48t77 -141l76 -313l-47 -20l-180 317q-30 53 -62 75.5t-80 22.5q-87 0 -140.5 -90t-53.5 -295v-153q107 0 315 4q78 2 126 12t91 35l43 -16q-10 -174 -10 -371v-154q0 -143 4 -204q5 -67 22 -96.5t72 -51.5
l-6 -47q-108 6 -164 6q-55 0 -163 -6l-6 47q55 22 72 51.5t22 96.5q4 61 4 204v78q0 132 -4 193q-3 46 -15 68.5t-45.5 35t-99.5 12.5h-258v-401q0 -108 4 -190q3 -64 26.5 -94.5t88.5 -53.5l-6 -47q-72 6 -185 6q-92 0 -164 -6l-6 47q54 22 70.5 51.5t21.5 96.5q7 74 7 198
v219q0 51 -2.5 78.5t-8.5 49.5t-21 30.5t-34.5 12t-54.5 3.5h-293v-401q0 -108 4 -190q3 -64 26.5 -94.5t88.5 -53.5l-6 -47q-72 6 -185 6q-92 0 -164 -6l-6 47q54 22 70.5 51.5t21.5 96.5q7 73 7 198v303q0 58 -16.5 81.5t-80.5 37.5z" />
    <glyph glyph-name="fficircumflex" unicode="ff&#xee;" horiz-adv-x="1734" 
d="M88 856q25 8 43.5 22.5t29 30.5t18.5 43t12 47.5t9.5 56.5t10.5 58q39 191 137.5 304.5t237.5 113.5q86 0 137 -39t51 -94q0 -35 -20.5 -56.5t-51.5 -21.5q-29 0 -48.5 13t-41.5 42q-23 28 -41 38.5t-49 10.5q-186 0 -186 -385v-153h291q22 0 39 4t29 8.5t22 18t15.5 23
t11.5 33t9 37.5t9 48.5t10 54.5q40 204 126 311t212 107q70 0 121 -41t51 -102q0 -38 -23 -63.5t-57 -25.5q-57 0 -84 70q-22 55 -71 55q-31 0 -57.5 -19.5t-48.5 -62t-35 -120t-13 -183.5v-153q135 3 223 8l17 -35l-17 -76h-223v-401q0 -108 4 -190q3 -64 26.5 -94.5
t88.5 -53.5l-6 -47q-72 6 -185 6q-92 0 -164 -6l-6 47q54 22 70.5 51.5t21.5 96.5q7 74 7 198v219q0 51 -2.5 78.5t-8.5 49.5t-21 30.5t-34.5 12t-54.5 3.5h-293v-401q0 -108 4 -190q3 -64 26.5 -94.5t88.5 -53.5l-6 -47q-72 6 -185 6q-92 0 -164 -6l-6 47q54 22 70.5 51.5
t21.5 96.5q7 73 7 198v303q0 58 -16.5 81.5t-80.5 37.5zM1219 1061l198 420q20 49 60 49q39 0 59 -49l199 -420l-43 -27l-215 275l-215 -275zM1292 752v43q70 32 116.5 62.5t100.5 80.5l43 -16q-10 -174 -10 -371v-154q0 -82 4 -204q2 -65 20 -95t74 -53l-6 -47
q-108 6 -164 6q-55 0 -163 -6l-7 47q55 22 72.5 52t22.5 96q4 61 4 204v45q0 132 -4 193t-25 83.5t-78 33.5z" />
    <glyph glyph-name="ffidieresis" unicode="ff&#xef;" horiz-adv-x="1771" 
d="M88 856q25 8 43.5 22.5t29 30.5t18.5 43t12 47.5t9.5 56.5t10.5 58q39 191 137.5 304.5t237.5 113.5q86 0 137 -39t51 -94q0 -35 -20.5 -56.5t-51.5 -21.5q-29 0 -48.5 13t-41.5 42q-23 28 -41 38.5t-49 10.5q-186 0 -186 -385v-153h291q22 0 39 4t29 8.5t22 18t15.5 23
t11.5 33t9 37.5t9 48.5t10 54.5q40 204 126 311t212 107q70 0 121 -41t51 -102q0 -38 -23 -63.5t-57 -25.5q-57 0 -84 70q-22 55 -71 55q-31 0 -57.5 -19.5t-48.5 -62t-35 -120t-13 -183.5v-153q135 3 223 8l17 -35l-17 -76h-223v-401q0 -108 4 -190q3 -64 26.5 -94.5
t88.5 -53.5l-6 -47q-72 6 -185 6q-92 0 -164 -6l-6 47q54 22 70.5 51.5t21.5 96.5q7 74 7 198v219q0 51 -2.5 78.5t-8.5 49.5t-21 30.5t-34.5 12t-54.5 3.5h-293v-401q0 -108 4 -190q3 -64 26.5 -94.5t88.5 -53.5l-6 -47q-72 6 -185 6q-92 0 -164 -6l-6 47q54 22 70.5 51.5
t21.5 96.5q7 73 7 198v303q0 58 -16.5 81.5t-80.5 37.5zM1243 1210q0 43 30 73t73 30q44 0 74 -30t30 -73q0 -44 -30 -74t-74 -30q-43 0 -73 30t-30 74zM1331 752v43q70 32 116.5 62.5t100.5 80.5l43 -16q-10 -174 -10 -371v-154q0 -82 4 -204q2 -65 20 -95t74 -53l-6 -47
q-108 6 -164 6q-55 0 -163 -6l-7 47q55 22 72.5 52t22.5 96q4 61 4 204v45q0 132 -4 193t-25 83.5t-78 33.5zM1589 1210q0 43 30 73t73 30q44 0 74 -30t30 -73q0 -44 -30 -74t-74 -30q-43 0 -73 30t-30 74z" />
    <glyph glyph-name="ffodieresis" unicode="ff&#xf6;" horiz-adv-x="2193" 
d="M88 856q25 8 43.5 22.5t29 30.5t18.5 43t12 47.5t9.5 56.5t10.5 58q39 191 137.5 304.5t237.5 113.5q86 0 137 -39t51 -94q0 -35 -20.5 -56.5t-51.5 -21.5q-29 0 -48.5 13t-41.5 42q-23 28 -41 38.5t-49 10.5q-186 0 -186 -385v-153h291q22 0 39 4t29 8.5t22 18t15.5 23
t11.5 33t9 37.5t9 48.5t10 54.5q40 204 126 311t212 107q70 0 121 -41t51 -102q0 -38 -23 -63.5t-57 -25.5q-57 0 -84 70q-22 55 -71 55q-31 0 -57.5 -19.5t-48.5 -62t-35 -120t-13 -183.5v-153q135 3 223 8l17 -35l-17 -76h-223v-401q0 -108 4 -190q3 -64 26.5 -94.5
t88.5 -53.5l-6 -47q-72 6 -185 6q-92 0 -164 -6l-6 47q54 22 70.5 51.5t21.5 96.5q7 74 7 198v219q0 51 -2.5 78.5t-8.5 49.5t-21 30.5t-34.5 12t-54.5 3.5h-293v-401q0 -108 4 -190q3 -64 26.5 -94.5t88.5 -53.5l-6 -47q-72 6 -185 6q-92 0 -164 -6l-6 47q54 22 70.5 51.5
t21.5 96.5q7 73 7 198v303q0 58 -16.5 81.5t-80.5 37.5zM1202 451q0 199 133.5 341t321.5 142q196 0 326.5 -139t130.5 -344q0 -132 -59.5 -243.5t-162.5 -176t-225 -64.5q-200 0 -332.5 139.5t-132.5 344.5zM1370 469q0 -189 83 -296t220 -107q122 0 197.5 98t75.5 274
q0 180 -83.5 291t-211.5 111q-122 0 -201.5 -97.5t-79.5 -273.5zM1370 1333q0 43 30 73t73 30q44 0 74 -30t30 -73q0 -44 -30 -74t-74 -30q-43 0 -73 30t-30 74zM1716 1333q0 43 30 73t73 30q44 0 74 -30t30 -73q0 -44 -30 -74t-74 -30q-43 0 -73 30t-30 74z" />
    <glyph glyph-name="ffotilde" unicode="ff&#xf5;" horiz-adv-x="2191" 
d="M88 856q25 8 43.5 22.5t29 30.5t18.5 43t12 47.5t9.5 56.5t10.5 58q39 191 137.5 304.5t237.5 113.5q86 0 137 -39t51 -94q0 -35 -20.5 -56.5t-51.5 -21.5q-29 0 -48.5 13t-41.5 42q-23 28 -41 38.5t-49 10.5q-186 0 -186 -385v-153h291q22 0 39 4t29 8.5t22 18t15.5 23
t11.5 33t9 37.5t9 48.5t10 54.5q40 204 126 311t212 107q70 0 121 -41t51 -102q0 -38 -23 -63.5t-57 -25.5q-57 0 -84 70q-22 55 -71 55q-31 0 -57.5 -19.5t-48.5 -62t-35 -120t-13 -183.5v-153q135 3 223 8l17 -35l-17 -76h-223v-401q0 -108 4 -190q3 -64 26.5 -94.5
t88.5 -53.5l-6 -47q-72 6 -185 6q-92 0 -164 -6l-6 47q54 22 70.5 51.5t21.5 96.5q7 74 7 198v219q0 51 -2.5 78.5t-8.5 49.5t-21 30.5t-34.5 12t-54.5 3.5h-293v-401q0 -108 4 -190q3 -64 26.5 -94.5t88.5 -53.5l-6 -47q-72 6 -185 6q-92 0 -164 -6l-6 47q54 22 70.5 51.5
t21.5 96.5q7 73 7 198v303q0 58 -16.5 81.5t-80.5 37.5zM1200 451q0 199 133.5 341t321.5 142q129 0 233.5 -63.5t163.5 -174.5t59 -245q0 -132 -59.5 -243.5t-162 -176t-224.5 -64.5q-200 0 -332.5 139.5t-132.5 344.5zM1368 469q0 -189 83 -296t220 -107q122 0 197.5 98
t75.5 274q0 180 -83.5 291t-211.5 111q-122 0 -201.5 -97.5t-79.5 -273.5zM1370 1280q89 139 203 139q55 0 123 -30q7 -3 24.5 -11t22.5 -10.5t17.5 -7t19.5 -6t17.5 -3t21.5 -1.5q64 0 129 51l34 -37q-89 -139 -200 -139q-56 0 -123 30q-7 3 -24.5 11t-22.5 10.5t-17.5 7
t-19.5 6t-17.5 3t-21.5 1.5q-64 0 -129 -51z" />
    <glyph glyph-name="ffutilde" unicode="ff&#x169;" horiz-adv-x="2191" 
d="M88 856q25 8 43.5 22.5t29 30.5t18.5 43t12 47.5t9.5 56.5t10.5 58q39 191 137.5 304.5t237.5 113.5q86 0 137 -39t51 -94q0 -35 -20.5 -56.5t-51.5 -21.5q-29 0 -48.5 13t-41.5 42q-23 28 -41 38.5t-49 10.5q-186 0 -186 -385v-153h291q22 0 39 4t29 8.5t22 18t15.5 23
t11.5 33t9 37.5t9 48.5t10 54.5q40 204 126 311t212 107q70 0 121 -41t51 -102q0 -38 -23 -63.5t-57 -25.5q-57 0 -84 70q-22 55 -71 55q-31 0 -57.5 -19.5t-48.5 -62t-35 -120t-13 -183.5v-153q135 3 223 8l17 -35l-17 -76h-223v-401q0 -108 4 -190q3 -64 26.5 -94.5
t88.5 -53.5l-6 -47q-72 6 -185 6q-92 0 -164 -6l-6 47q54 22 70.5 51.5t21.5 96.5q7 74 7 198v219q0 51 -2.5 78.5t-8.5 49.5t-21 30.5t-34.5 12t-54.5 3.5h-293v-401q0 -108 4 -190q3 -64 26.5 -94.5t88.5 -53.5l-6 -47q-72 6 -185 6q-92 0 -164 -6l-6 47q54 22 70.5 51.5
t21.5 96.5q7 73 7 198v303q0 58 -16.5 81.5t-80.5 37.5zM1200 840l6 45q164 4 256 10q-2 -42 -6 -114t-6 -128t-2 -127v-233q0 -95 43.5 -144t118.5 -49q109 0 173 70t64 184v144q0 129 -6 192q-4 62 -26 94t-72 56l6 45q164 4 256 10q-2 -42 -6 -114t-6 -128t-2 -127v-88
q0 -121 6 -184q4 -62 24 -84t76 -33v-43q-60 -28 -100.5 -55.5t-91.5 -71.5l-43 10l-7 189l-2 2q-38 -88 -112.5 -144.5t-163.5 -56.5q-157 0 -231 121q-41 71 -41 186v224q0 118 -7 192q-6 63 -27 95t-71 55zM1348 1280q89 139 202 139q56 0 123 -30q7 -3 24.5 -11
t22.5 -10.5t17.5 -7t19.5 -6t17.5 -3t21.5 -1.5q64 0 129 51l35 -37q-89 -139 -201 -139q-55 0 -123 30q-7 3 -24.5 11t-22.5 10.5t-17.5 7t-19.5 6t-17.5 3t-21.5 1.5q-64 0 -129 -51z" />
    <glyph glyph-name="ffscaron" unicode="ff&#x161;" horiz-adv-x="1900" 
d="M88 856q25 8 43.5 22.5t29 30.5t18.5 43t12 47.5t9.5 56.5t10.5 58q39 191 137.5 304.5t237.5 113.5q86 0 137 -39t51 -94q0 -35 -20.5 -56.5t-51.5 -21.5q-29 0 -48.5 13t-41.5 42q-23 28 -41 38.5t-49 10.5q-186 0 -186 -385v-153h291q22 0 39 4t29 8.5t22 18t15.5 23
t11.5 33t9 37.5t9 48.5t10 54.5q40 204 126 311t212 107q70 0 121 -41t51 -102q0 -38 -23 -63.5t-57 -25.5q-57 0 -84 70q-22 55 -71 55q-31 0 -57.5 -19.5t-48.5 -62t-35 -120t-13 -183.5v-153q135 3 223 8l17 -35l-17 -76h-223v-401q0 -108 4 -190q3 -64 26.5 -94.5
t88.5 -53.5l-6 -47q-72 6 -185 6q-92 0 -164 -6l-6 47q54 22 70.5 51.5t21.5 96.5q7 74 7 198v219q0 51 -2.5 78.5t-8.5 49.5t-21 30.5t-34.5 12t-54.5 3.5h-293v-401q0 -108 4 -190q3 -64 26.5 -94.5t88.5 -53.5l-6 -47q-72 6 -185 6q-92 0 -164 -6l-6 47q54 22 70.5 51.5
t21.5 96.5q7 73 7 198v303q0 58 -16.5 81.5t-80.5 37.5zM1268 150q0 36 20 58.5t55 22.5q68 0 89 -79q27 -99 122 -99q67 0 107.5 34t40.5 103q0 63 -40 108.5t-140 96.5q-120 60 -173 127.5t-53 151.5q0 109 79.5 183.5t189.5 74.5q59 0 100.5 -13.5t83.5 -46.5
q53 -43 53 -100q0 -33 -19.5 -53.5t-51.5 -20.5q-57 0 -86 70q-19 40 -43 59t-68 19q-51 0 -85 -33t-34 -84q0 -60 42.5 -109t150.5 -102q119 -58 171 -124.5t52 -164.5q0 -116 -80.5 -189t-204.5 -73q-78 0 -126 14.5t-91 51.5q-61 51 -61 117zM1305 1503l43 27l215 -275
l215 275l43 -27l-199 -420q-20 -49 -59 -49q-40 0 -60 49z" />
    <glyph glyph-name="ffydieresis" unicode="ff&#xff;" horiz-adv-x="2035" 
d="M88 856q25 8 43.5 22.5t29 30.5t18.5 43t12 47.5t9.5 56.5t10.5 58q39 191 137.5 304.5t237.5 113.5q86 0 137 -39t51 -94q0 -35 -20.5 -56.5t-51.5 -21.5q-29 0 -48.5 13t-41.5 42q-23 28 -41 38.5t-49 10.5q-186 0 -186 -385v-153h291q22 0 39 4t29 8.5t22 18t15.5 23
t11.5 33t9 37.5t9 48.5t10 54.5q40 204 126 311t212 107q70 0 121 -41t51 -102q0 -38 -23 -63.5t-57 -25.5q-57 0 -84 70q-22 55 -71 55q-31 0 -57.5 -19.5t-48.5 -62t-35 -120t-13 -183.5v-153q135 3 223 8l17 -35l-17 -76h-223v-401q0 -108 4 -190q3 -64 26.5 -94.5
t88.5 -53.5l-6 -47q-72 6 -185 6q-92 0 -164 -6l-6 47q54 22 70.5 51.5t21.5 96.5q7 74 7 198v219q0 51 -2.5 78.5t-8.5 49.5t-21 30.5t-34.5 12t-54.5 3.5h-293v-401q0 -108 4 -190q3 -64 26.5 -94.5t88.5 -53.5l-6 -47q-72 6 -185 6q-92 0 -164 -6l-6 47q54 22 70.5 51.5
t21.5 96.5q7 73 7 198v303q0 58 -16.5 81.5t-80.5 37.5zM1120 -479q0 35 22 59.5t56 24.5q20 0 46 -5.5t44 -5.5q32 0 56.5 24t48.5 75l147 319l-203 502q-3 8 -32.5 85.5t-49.5 121.5q-23 51 -40 72.5t-54 46.5l8 47q89 -6 166 -6q53 0 142 6l6 -47q-62 -28 -62 -82
q0 -37 13 -83t57 -157l127 -319l135 317q64 150 64 215q0 36 -14.5 61t-57.5 48l8 47q59 -6 139 -6q74 0 133 6l7 -47q-45 -40 -99 -148q-18 -36 -47.5 -103.5t-32.5 -74.5l-362 -819q-58 -131 -119 -195q-65 -65 -155 -65q-41 0 -69 24.5t-28 61.5zM1368 1333q0 43 29.5 73
t72.5 30q44 0 74.5 -30t30.5 -73q0 -44 -30.5 -74t-74.5 -30q-43 0 -72.5 30t-29.5 74zM1714 1333q0 43 30 73t73 30q44 0 74 -30t30 -73q0 -44 -30 -74t-74 -30q-43 0 -73 30t-30 74z" />
    <glyph glyph-name="fflcaron" unicode="ff&#x13e;" horiz-adv-x="1751" 
d="M88 856q25 8 43.5 22.5t29 30.5t18.5 43t12 47.5t9.5 56.5t10.5 58q39 191 137.5 304.5t237.5 113.5q86 0 137 -39t51 -94q0 -35 -20.5 -56.5t-51.5 -21.5q-29 0 -48.5 13t-41.5 42q-23 28 -41 38.5t-49 10.5q-184 0 -184 -385v-153h289q25 0 43 4t31 15t20.5 21.5
t14 33.5t10 41.5t10 54t12.5 61.5q92 414 420 414q102 0 164 -47q35 24 73 55l43 -16q-10 -174 -10 -371v-756q0 -143 4 -204q0 -64 19 -94.5t75 -53.5l-6 -47q-108 6 -164 6q-55 0 -163 -6l-6 47q55 22 72 51.5t22 96.5q4 61 4 204v647q0 130 -4 191q-12 190 -189 190
q-103 0 -166 -90t-63 -295v-153q135 3 223 8l17 -35l-17 -76h-223v-387q0 -47 1 -94.5t2 -77t1 -32.5q0 -63 24.5 -94t90.5 -54l-6 -47q-108 6 -185 6q-56 0 -164 -6l-6 47q55 22 72 51.5t22 96.5q5 76 5 198v219q0 51 -2.5 78.5t-8.5 49.5t-21 30.5t-34.5 12t-54.5 3.5
h-291v-395q0 -45 0.5 -90.5t1 -74t0.5 -31.5q0 -63 24.5 -94t90.5 -54l-6 -47q-108 6 -185 6q-56 0 -164 -6l-6 47q55 22 72 51.5t22 96.5q5 76 5 198v303q0 58 -16.5 81.5t-80.5 37.5zM1599 1149q88 33 121 66t33 71q0 52 -57 84q-37 21 -54.5 41.5t-17.5 52.5q0 30 23 52
t57 22q56 0 100.5 -52.5t44.5 -133.5q0 -101 -56.5 -161t-176.5 -93z" />
    <glyph glyph-name="ffzdotaccent" unicode="ff&#x17c;" horiz-adv-x="1955" 
d="M88 856q25 8 43.5 22.5t29 30.5t18.5 43t12 47.5t9.5 56.5t10.5 58q39 191 137.5 304.5t237.5 113.5q86 0 137 -39t51 -94q0 -35 -20.5 -56.5t-51.5 -21.5q-29 0 -48.5 13t-41.5 42q-23 28 -41 38.5t-49 10.5q-186 0 -186 -385v-153h291q22 0 39 4t29 8.5t22 18t15.5 23
t11.5 33t9 37.5t9 48.5t10 54.5q40 204 126 311t212 107q70 0 121 -41t51 -102q0 -38 -23 -63.5t-57 -25.5q-57 0 -84 70q-22 55 -71 55q-31 0 -57.5 -19.5t-48.5 -62t-35 -120t-13 -183.5v-153q135 3 223 8l17 -35l-17 -76h-223v-401q0 -108 4 -190q3 -64 26.5 -94.5
t88.5 -53.5l-6 -47q-72 6 -185 6q-92 0 -164 -6l-6 47q54 22 70.5 51.5t21.5 96.5q7 74 7 198v219q0 51 -2.5 78.5t-8.5 49.5t-21 30.5t-34.5 12t-54.5 3.5h-293v-401q0 -108 4 -190q3 -64 26.5 -94.5t88.5 -53.5l-6 -47q-72 6 -185 6q-92 0 -164 -6l-6 47q54 22 70.5 51.5
t21.5 96.5q7 73 7 198v303q0 58 -16.5 81.5t-80.5 37.5zM1180 78q131 177 143 194l365 521h-127q-87 0 -148 -9q-54 -8 -83 -36t-58 -103l-53 10q13 152 30 236q137 -10 240 -10h176q7 0 205 6l12 -53q-57 -77 -153 -216l-373 -530h157q88 0 160 10q66 10 94 62
q25 37 56 123l55 -11q-12 -184 -29 -282q-12 0 -51.5 3t-89 5t-111.5 2h-133q-96 0 -260 -4zM1425 1389q0 49 32.5 81.5t82.5 32.5t82.5 -32.5t32.5 -81.5t-32.5 -82t-82.5 -33t-82.5 33t-32.5 82z" />
    <glyph glyph-name="ffabreve" unicode="ff&#x103;" horiz-adv-x="2011" 
d="M88 856q25 8 43.5 22.5t29 30.5t18.5 43t12 47.5t9.5 56.5t10.5 58q39 191 137.5 304.5t237.5 113.5q86 0 137 -39t51 -94q0 -35 -20.5 -56.5t-51.5 -21.5q-29 0 -48.5 13t-41.5 42q-23 28 -41 38.5t-49 10.5q-186 0 -186 -385v-153h291q22 0 39 4t29 8.5t22 18t15.5 23
t11.5 33t9 37.5t9 48.5t10 54.5q40 204 126 311t212 107q70 0 121 -41t51 -102q0 -38 -23 -63.5t-57 -25.5q-57 0 -84 70q-22 55 -71 55q-31 0 -57.5 -19.5t-48.5 -62t-35 -120t-13 -183.5v-153q135 3 223 8l17 -35l-17 -76h-223v-401q0 -108 4 -190q3 -64 26.5 -94.5
t88.5 -53.5l-6 -47q-72 6 -185 6q-92 0 -164 -6l-6 47q54 22 70.5 51.5t21.5 96.5q7 74 7 198v219q0 51 -2.5 78.5t-8.5 49.5t-21 30.5t-34.5 12t-54.5 3.5h-293v-401q0 -108 4 -190q3 -64 26.5 -94.5t88.5 -53.5l-6 -47q-72 6 -185 6q-92 0 -164 -6l-6 47q54 22 70.5 51.5
t21.5 96.5q7 73 7 198v303q0 58 -16.5 81.5t-80.5 37.5zM1257 166q0 68 32.5 116t96.5 89q112 72 316 125v100q0 91 -43 147q-44 58 -129 58q-90 0 -197 -84l-39 65q32 59 104.5 103.5t157.5 44.5q155 0 228 -107q61 -87 61 -221v-196q0 -124 4 -187q6 -103 103 -149
l-27 -82q-100 4 -149.5 44.5t-63.5 114.5h-4q-39 -90 -102 -133t-136 -43q-96 0 -154.5 55.5t-58.5 139.5zM1329 1516l49 4q35 -160 84 -230.5t125 -70.5t125 70.5t84 230.5l49 -4q-6 -222 -76.5 -331.5t-181.5 -109.5t-181.5 109.5t-76.5 331.5zM1403 201q0 -45 25.5 -75
t76.5 -30q71 0 134 58.5t63 156.5v113q-22 -7 -119 -47q-180 -76 -180 -176z" />
    <glyph glyph-name="fflacute" unicode="ff&#x13a;" horiz-adv-x="1648" 
d="M88 856q25 8 43.5 22.5t29 30.5t18.5 43t12 47.5t9.5 56.5t10.5 58q39 191 137.5 304.5t237.5 113.5q86 0 137 -39t51 -94q0 -35 -20.5 -56.5t-51.5 -21.5q-29 0 -48.5 13t-41.5 42q-23 28 -41 38.5t-49 10.5q-184 0 -184 -385v-153h289q25 0 43 4t31 15t20.5 21.5
t14 33.5t10 41.5t10 54t12.5 61.5q92 414 420 414q102 0 164 -47q35 24 73 55l43 -16q-10 -174 -10 -371v-756q0 -143 4 -204q0 -64 19 -94.5t75 -53.5l-6 -47q-108 6 -164 6q-55 0 -163 -6l-6 47q55 22 72 51.5t22 96.5q4 61 4 204v647q0 130 -4 191q-12 190 -189 190
q-103 0 -166 -90t-63 -295v-153q135 3 223 8l17 -35l-17 -76h-223v-387q0 -47 1 -94.5t2 -77t1 -32.5q0 -63 24.5 -94t90.5 -54l-6 -47q-108 6 -185 6q-56 0 -164 -6l-6 47q55 22 72 51.5t22 96.5q5 76 5 198v219q0 51 -2.5 78.5t-8.5 49.5t-21 30.5t-34.5 12t-54.5 3.5
h-291v-395q0 -45 0.5 -90.5t1 -74t0.5 -31.5q0 -63 24.5 -94t90.5 -54l-6 -47q-108 6 -185 6q-56 0 -164 -6l-6 47q55 22 72 51.5t22 96.5q5 76 5 198v303q0 58 -16.5 81.5t-80.5 37.5zM1128 1620l342 209q51 31 89 31q36 0 58.5 -23.5t22.5 -60.5q0 -39 -26 -61.5
t-86 -37.5l-381 -106z" />
    <glyph glyph-name="ffccaron" unicode="ff&#x10d;" horiz-adv-x="2041" 
d="M88 856q25 8 43.5 22.5t29 30.5t18.5 43t12 47.5t9.5 56.5t10.5 58q39 191 137.5 304.5t237.5 113.5q86 0 137 -39t51 -94q0 -35 -20.5 -56.5t-51.5 -21.5q-29 0 -48.5 13t-41.5 42q-23 28 -41 38.5t-49 10.5q-186 0 -186 -385v-153h291q22 0 39 4t29 8.5t22 18t15.5 23
t11.5 33t9 37.5t9 48.5t10 54.5q40 204 126 311t212 107q70 0 121 -41t51 -102q0 -38 -23 -63.5t-57 -25.5q-57 0 -84 70q-22 55 -71 55q-31 0 -57.5 -19.5t-48.5 -62t-35 -120t-13 -183.5v-153q135 3 223 8l17 -35l-17 -76h-223v-401q0 -108 4 -190q3 -64 26.5 -94.5
t88.5 -53.5l-6 -47q-72 6 -185 6q-92 0 -164 -6l-6 47q54 22 70.5 51.5t21.5 96.5q7 74 7 198v219q0 51 -2.5 78.5t-8.5 49.5t-21 30.5t-34.5 12t-54.5 3.5h-293v-401q0 -108 4 -190q3 -64 26.5 -94.5t88.5 -53.5l-6 -47q-72 6 -185 6q-92 0 -164 -6l-6 47q54 22 70.5 51.5
t21.5 96.5q7 73 7 198v303q0 58 -16.5 81.5t-80.5 37.5zM1202 434q0 140 61 255t165.5 180t230.5 65q137 0 231 -84q74 -65 74 -152q0 -39 -23 -64.5t-63 -25.5q-75 0 -90 86q-26 148 -162 148q-120 0 -193 -100t-73 -275q0 -157 80 -255.5t200 -98.5q98 0 163 37.5
t128 128.5l49 -31q-49 -127 -140 -204t-220 -77q-123 0 -220 65t-147.5 170.5t-50.5 231.5zM1382 1503l43 27l215 -275l215 275l43 -27l-198 -420q-20 -49 -60 -49q-39 0 -59 49z" />
    <glyph glyph-name="ffecaron" unicode="ff&#x11b;" horiz-adv-x="2084" 
d="M88 856q25 8 43.5 22.5t29 30.5t18.5 43t12 47.5t9.5 56.5t10.5 58q39 191 137.5 304.5t237.5 113.5q86 0 137 -39t51 -94q0 -35 -20.5 -56.5t-51.5 -21.5q-29 0 -48.5 13t-41.5 42q-23 28 -41 38.5t-49 10.5q-186 0 -186 -385v-153h291q22 0 39 4t29 8.5t22 18t15.5 23
t11.5 33t9 37.5t9 48.5t10 54.5q40 204 126 311t212 107q70 0 121 -41t51 -102q0 -38 -23 -63.5t-57 -25.5q-57 0 -84 70q-22 55 -71 55q-31 0 -57.5 -19.5t-48.5 -62t-35 -120t-13 -183.5v-153q135 3 223 8l17 -35l-17 -76h-223v-401q0 -108 4 -190q3 -64 26.5 -94.5
t88.5 -53.5l-6 -47q-72 6 -185 6q-92 0 -164 -6l-6 47q54 22 70.5 51.5t21.5 96.5q7 74 7 198v219q0 51 -2.5 78.5t-8.5 49.5t-21 30.5t-34.5 12t-54.5 3.5h-293v-401q0 -108 4 -190q3 -64 26.5 -94.5t88.5 -53.5l-6 -47q-72 6 -185 6q-92 0 -164 -6l-6 47q54 22 70.5 51.5
t21.5 96.5q7 73 7 198v303q0 58 -16.5 81.5t-80.5 37.5zM1202 434q0 213 129 356.5t320 143.5q148 0 247 -97.5t99 -244.5q0 -31 -4 -47h-631q-4 -25 -4 -78q0 -156 83 -255t208 -99q98 0 165 37.5t130 128.5l49 -31q-49 -125 -142.5 -203t-222.5 -78q-124 0 -222.5 64.5
t-151 171t-52.5 231.5zM1370 1503l43 27l215 -275l215 275l43 -27l-198 -420q-20 -49 -60 -49q-39 0 -59 49zM1376 627h441q-1 101 -61 158t-150 57t-150 -60t-80 -155z" />
    <glyph glyph-name="ffrcaron" unicode="ff&#x159;" horiz-adv-x="1839" 
d="M88 856q25 8 43.5 22.5t29 30.5t18.5 43t12 47.5t9.5 56.5t10.5 58q39 191 137.5 304.5t237.5 113.5q86 0 137 -39t51 -94q0 -35 -20.5 -56.5t-51.5 -21.5q-29 0 -48.5 13t-41.5 42q-23 28 -41 38.5t-49 10.5q-186 0 -186 -385v-153h291q22 0 39 4t29 8.5t22 18t15.5 23
t11.5 33t9 37.5t9 48.5t10 54.5q40 204 126 311t212 107q70 0 121 -41t51 -102q0 -38 -23 -63.5t-57 -25.5q-57 0 -84 70q-22 55 -71 55q-31 0 -57.5 -19.5t-48.5 -62t-35 -120t-13 -183.5v-153q135 3 223 8l17 -35l-17 -76h-223v-401q0 -108 4 -190q3 -64 26.5 -94.5
t88.5 -53.5l-6 -47q-72 6 -185 6q-92 0 -164 -6l-6 47q54 22 70.5 51.5t21.5 96.5q7 74 7 198v219q0 51 -2.5 78.5t-8.5 49.5t-21 30.5t-34.5 12t-54.5 3.5h-293v-401q0 -108 4 -190q3 -64 26.5 -94.5t88.5 -53.5l-6 -47q-72 6 -185 6q-92 0 -164 -6l-6 47q54 22 70.5 51.5
t21.5 96.5q7 73 7 198v303q0 58 -16.5 81.5t-80.5 37.5zM1225 752v43q72 35 118 65t99 78l43 -16q-7 -81 -12 -199l2 -2q41 100 106.5 156.5t138.5 56.5q61 0 96 -30t35 -73q0 -71 -73 -71q-27 0 -65 18.5t-62 18.5q-75 0 -125.5 -83.5t-50.5 -226.5v-96q0 -135 4 -198
q5 -66 27 -97.5t87 -50.5l-6 -47q-72 6 -184 6q-92 0 -164 -6l-6 47q54 22 70.5 51.5t21.5 96.5q6 63 6 198v51q0 130 -6 193q-4 62 -24 84t-76 33zM1315 1503l43 27l215 -275l215 275l43 -27l-199 -420q-20 -49 -59 -49q-40 0 -60 49z" />
    <glyph glyph-name="ffamacron" unicode="ff&#x101;" horiz-adv-x="2013" 
d="M88 856q25 8 43.5 22.5t29 30.5t18.5 43t12 47.5t9.5 56.5t10.5 58q39 191 137.5 304.5t237.5 113.5q86 0 137 -39t51 -94q0 -35 -20.5 -56.5t-51.5 -21.5q-29 0 -48.5 13t-41.5 42q-23 28 -41 38.5t-49 10.5q-186 0 -186 -385v-153h291q22 0 39 4t29 8.5t22 18t15.5 23
t11.5 33t9 37.5t9 48.5t10 54.5q40 204 126 311t212 107q70 0 121 -41t51 -102q0 -38 -23 -63.5t-57 -25.5q-57 0 -84 70q-22 55 -71 55q-31 0 -57.5 -19.5t-48.5 -62t-35 -120t-13 -183.5v-153q135 3 223 8l17 -35l-17 -76h-223v-401q0 -108 4 -190q3 -64 26.5 -94.5
t88.5 -53.5l-6 -47q-72 6 -185 6q-92 0 -164 -6l-6 47q54 22 70.5 51.5t21.5 96.5q7 74 7 198v219q0 51 -2.5 78.5t-8.5 49.5t-21 30.5t-34.5 12t-54.5 3.5h-293v-401q0 -108 4 -190q3 -64 26.5 -94.5t88.5 -53.5l-6 -47q-72 6 -185 6q-92 0 -164 -6l-6 47q54 22 70.5 51.5
t21.5 96.5q7 73 7 198v303q0 58 -16.5 81.5t-80.5 37.5zM1260 166q0 68 32.5 116t96.5 89q112 72 315 125v100q0 91 -43 147q-44 58 -129 58q-90 0 -197 -84l-39 65q32 59 105 103.5t158 44.5q154 0 227 -107q61 -87 61 -221v-196q0 -124 4 -187q6 -103 103 -149l-27 -82
q-100 4 -149.5 44.5t-63.5 114.5h-4q-39 -90 -101.5 -133t-135.5 -43q-96 0 -154.5 55.5t-58.5 139.5zM1311 1202v111h553v-111h-553zM1405 201q0 -45 25.5 -75t76.5 -30q71 0 134 58.5t63 156.5v113q-21 -7 -119 -47q-180 -76 -180 -176z" />
    <glyph glyph-name="ffemacron" unicode="ff&#x113;" horiz-adv-x="2084" 
d="M88 856q25 8 43.5 22.5t29 30.5t18.5 43t12 47.5t9.5 56.5t10.5 58q39 191 137.5 304.5t237.5 113.5q86 0 137 -39t51 -94q0 -35 -20.5 -56.5t-51.5 -21.5q-29 0 -48.5 13t-41.5 42q-23 28 -41 38.5t-49 10.5q-186 0 -186 -385v-153h291q22 0 39 4t29 8.5t22 18t15.5 23
t11.5 33t9 37.5t9 48.5t10 54.5q40 204 126 311t212 107q70 0 121 -41t51 -102q0 -38 -23 -63.5t-57 -25.5q-57 0 -84 70q-22 55 -71 55q-31 0 -57.5 -19.5t-48.5 -62t-35 -120t-13 -183.5v-153q135 3 223 8l17 -35l-17 -76h-223v-401q0 -108 4 -190q3 -64 26.5 -94.5
t88.5 -53.5l-6 -47q-72 6 -185 6q-92 0 -164 -6l-6 47q54 22 70.5 51.5t21.5 96.5q7 74 7 198v219q0 51 -2.5 78.5t-8.5 49.5t-21 30.5t-34.5 12t-54.5 3.5h-293v-401q0 -108 4 -190q3 -64 26.5 -94.5t88.5 -53.5l-6 -47q-72 6 -185 6q-92 0 -164 -6l-6 47q54 22 70.5 51.5
t21.5 96.5q7 73 7 198v303q0 58 -16.5 81.5t-80.5 37.5zM1202 434q0 213 129 356.5t320 143.5q148 0 247 -97.5t99 -244.5q0 -31 -4 -47h-631q-4 -25 -4 -78q0 -156 83 -255t208 -99q98 0 165 37.5t130 128.5l49 -31q-49 -125 -142.5 -203t-222.5 -78q-124 0 -222.5 64.5
t-151 171t-52.5 231.5zM1366 1264v110h553v-110h-553zM1376 627h441q-1 101 -61 158t-150 57t-150 -60t-80 -155z" />
    <glyph glyph-name="ffiogonek" unicode="ff&#x12f;" horiz-adv-x="1648" 
d="M88 856q25 8 43.5 22.5t29 30.5t18.5 43t12 47.5t9.5 56.5t10.5 58q39 191 137.5 304.5t237.5 113.5q86 0 137 -39t51 -94q0 -35 -20.5 -56.5t-51.5 -21.5q-29 0 -48.5 13t-41.5 42q-23 28 -41 38.5t-49 10.5q-186 0 -186 -385v-153h291q25 0 43 4t31 15t20.5 21.5
t14 33.5t10 41.5t10 54t12.5 61.5q46 197 146.5 305.5t273.5 108.5q113 0 188.5 -51t75.5 -127q0 -41 -24.5 -67.5t-67.5 -26.5q-74 0 -121 86q-42 79 -117 79q-104 0 -166.5 -89.5t-62.5 -295.5v-153q107 0 315 4q78 2 126 12t91 35l43 -16q-10 -174 -10 -371v-154
q0 -143 4 -204q5 -67 22 -96.5t72 -51.5l-6 -47q-90 4 -108 4q-121 -107 -121 -209q0 -47 25.5 -71.5t62.5 -24.5q67 0 94 72l47 -15q-12 -82 -54.5 -127t-109.5 -45q-70 0 -118.5 47.5t-48.5 122.5q0 137 147 252q-21 0 -69 -2.5t-74 -3.5l-6 47q55 22 72 51.5t22 96.5
q4 61 4 204v78q0 132 -4 193q-3 46 -15 68.5t-45.5 35t-99.5 12.5h-258v-393q0 -88 4 -198q3 -64 26.5 -94.5t88.5 -53.5l-6 -47q-108 6 -185 6q-56 0 -164 -6l-6 47q55 22 72 51.5t22 96.5q5 76 5 198v219q0 51 -2.5 78.5t-8.5 49.5t-21 30.5t-34.5 12t-54.5 3.5h-293v-393
q0 -124 4 -198q3 -64 26.5 -94.5t88.5 -53.5l-6 -47q-108 6 -185 6q-56 0 -164 -6l-6 47q55 22 72 51.5t22 96.5q5 76 5 198v303q0 58 -16.5 81.5t-80.5 37.5z" />
    <glyph glyph-name="ffimacron" unicode="ff&#x12b;" horiz-adv-x="1751" 
d="M88 856q25 8 43.5 22.5t29 30.5t18.5 43t12 47.5t9.5 56.5t10.5 58q39 191 137.5 304.5t237.5 113.5q86 0 137 -39t51 -94q0 -35 -20.5 -56.5t-51.5 -21.5q-29 0 -48.5 13t-41.5 42q-23 28 -41 38.5t-49 10.5q-186 0 -186 -385v-153h291q22 0 39 4t29 8.5t22 18t15.5 23
t11.5 33t9 37.5t9 48.5t10 54.5q40 204 126 311t212 107q70 0 121 -41t51 -102q0 -38 -23 -63.5t-57 -25.5q-57 0 -84 70q-22 55 -71 55q-31 0 -57.5 -19.5t-48.5 -62t-35 -120t-13 -183.5v-153q135 3 223 8l17 -35l-17 -76h-223v-401q0 -108 4 -190q3 -64 26.5 -94.5
t88.5 -53.5l-6 -47q-72 6 -185 6q-92 0 -164 -6l-6 47q54 22 70.5 51.5t21.5 96.5q7 74 7 198v219q0 51 -2.5 78.5t-8.5 49.5t-21 30.5t-34.5 12t-54.5 3.5h-293v-401q0 -108 4 -190q3 -64 26.5 -94.5t88.5 -53.5l-6 -47q-72 6 -185 6q-92 0 -164 -6l-6 47q54 22 70.5 51.5
t21.5 96.5q7 73 7 198v303q0 58 -16.5 81.5t-80.5 37.5zM1223 1141v110h553v-110h-553zM1311 752v43q70 32 116.5 62.5t100.5 80.5l43 -16q-10 -174 -10 -371v-154q0 -82 4 -204q2 -65 20 -95t74 -53l-6 -47q-108 6 -164 6t-164 -6l-6 47q55 22 72 51.5t22 96.5q4 61 4 204
v45q0 132 -4 193q-4 62 -24.5 84t-77.5 33z" />
    <glyph glyph-name="ffomacron" unicode="ff&#x14d;" horiz-adv-x="2193" 
d="M88 856q25 8 43.5 22.5t29 30.5t18.5 43t12 47.5t9.5 56.5t10.5 58q39 191 137.5 304.5t237.5 113.5q86 0 137 -39t51 -94q0 -35 -20.5 -56.5t-51.5 -21.5q-29 0 -48.5 13t-41.5 42q-23 28 -41 38.5t-49 10.5q-186 0 -186 -385v-153h291q22 0 39 4t29 8.5t22 18t15.5 23
t11.5 33t9 37.5t9 48.5t10 54.5q40 204 126 311t212 107q70 0 121 -41t51 -102q0 -38 -23 -63.5t-57 -25.5q-57 0 -84 70q-22 55 -71 55q-31 0 -57.5 -19.5t-48.5 -62t-35 -120t-13 -183.5v-153q135 3 223 8l17 -35l-17 -76h-223v-401q0 -108 4 -190q3 -64 26.5 -94.5
t88.5 -53.5l-6 -47q-72 6 -185 6q-92 0 -164 -6l-6 47q54 22 70.5 51.5t21.5 96.5q7 74 7 198v219q0 51 -2.5 78.5t-8.5 49.5t-21 30.5t-34.5 12t-54.5 3.5h-293v-401q0 -108 4 -190q3 -64 26.5 -94.5t88.5 -53.5l-6 -47q-72 6 -185 6q-92 0 -164 -6l-6 47q54 22 70.5 51.5
t21.5 96.5q7 73 7 198v303q0 58 -16.5 81.5t-80.5 37.5zM1202 451q0 199 133.5 341t321.5 142q196 0 326.5 -139t130.5 -344q0 -132 -59.5 -243.5t-162.5 -176t-225 -64.5q-200 0 -332.5 139.5t-132.5 344.5zM1370 469q0 -189 83 -296t220 -107q122 0 197.5 98t75.5 274
q0 180 -83.5 291t-211.5 111q-122 0 -201.5 -97.5t-79.5 -273.5zM1378 1264v110h553v-110h-553z" />
    <glyph glyph-name="fflcommaaccent" unicode="ff&#x13c;" horiz-adv-x="1648" 
d="M88 856q25 8 43.5 22.5t29 30.5t18.5 43t12 47.5t9.5 56.5t10.5 58q39 191 137.5 304.5t237.5 113.5q86 0 137 -39t51 -94q0 -35 -20.5 -56.5t-51.5 -21.5q-29 0 -48.5 13t-41.5 42q-23 28 -41 38.5t-49 10.5q-184 0 -184 -385v-153h289q25 0 43 4t31 15t20.5 21.5
t14 33.5t10 41.5t10 54t12.5 61.5q92 414 420 414q102 0 164 -47q35 24 73 55l43 -16q-10 -174 -10 -371v-756q0 -143 4 -204q0 -64 19 -94.5t75 -53.5l-6 -47q-108 6 -164 6q-55 0 -163 -6l-6 47q55 22 72 51.5t22 96.5q4 61 4 204v647q0 130 -4 191q-12 190 -189 190
q-103 0 -166 -90t-63 -295v-153q135 3 223 8l17 -35l-17 -76h-223v-387q0 -47 1 -94.5t2 -77t1 -32.5q0 -63 24.5 -94t90.5 -54l-6 -47q-108 6 -185 6q-56 0 -164 -6l-6 47q55 22 72 51.5t22 96.5q5 76 5 198v219q0 51 -2.5 78.5t-8.5 49.5t-21 30.5t-34.5 12t-54.5 3.5
h-291v-395q0 -45 0.5 -90.5t1 -74t0.5 -31.5q0 -63 24.5 -94t90.5 -54l-6 -47q-108 6 -185 6q-56 0 -164 -6l-6 47q55 22 72 51.5t22 96.5q5 76 5 198v303q0 58 -16.5 81.5t-80.5 37.5zM1260 -512q88 33 120.5 66t32.5 71q0 52 -57 84q-37 21 -54.5 41.5t-17.5 52.5
q0 30 23 52t57 22q56 0 100.5 -52.5t44.5 -133.5q0 -101 -56.5 -161t-176.5 -93z" />
    <glyph glyph-name="ffumacron" unicode="ff&#x16b;" horiz-adv-x="2191" 
d="M88 856q25 8 43.5 22.5t29 30.5t18.5 43t12 47.5t9.5 56.5t10.5 58q39 191 137.5 304.5t237.5 113.5q86 0 137 -39t51 -94q0 -35 -20.5 -56.5t-51.5 -21.5q-29 0 -48.5 13t-41.5 42q-23 28 -41 38.5t-49 10.5q-186 0 -186 -385v-153h291q22 0 39 4t29 8.5t22 18t15.5 23
t11.5 33t9 37.5t9 48.5t10 54.5q40 204 126 311t212 107q70 0 121 -41t51 -102q0 -38 -23 -63.5t-57 -25.5q-57 0 -84 70q-22 55 -71 55q-31 0 -57.5 -19.5t-48.5 -62t-35 -120t-13 -183.5v-153q135 3 223 8l17 -35l-17 -76h-223v-401q0 -108 4 -190q3 -64 26.5 -94.5
t88.5 -53.5l-6 -47q-72 6 -185 6q-92 0 -164 -6l-6 47q54 22 70.5 51.5t21.5 96.5q7 74 7 198v219q0 51 -2.5 78.5t-8.5 49.5t-21 30.5t-34.5 12t-54.5 3.5h-293v-401q0 -108 4 -190q3 -64 26.5 -94.5t88.5 -53.5l-6 -47q-72 6 -185 6q-92 0 -164 -6l-6 47q54 22 70.5 51.5
t21.5 96.5q7 73 7 198v303q0 58 -16.5 81.5t-80.5 37.5zM1200 840l6 45q164 4 256 10q-2 -42 -6 -114t-6 -128t-2 -127v-233q0 -95 43.5 -144t118.5 -49q109 0 173 70t64 184v144q0 129 -6 192q-4 62 -26 94t-72 56l6 45q164 4 256 10q-2 -42 -6 -114t-6 -128t-2 -127v-88
q0 -121 6 -184q4 -62 24 -84t76 -33v-43q-60 -28 -100.5 -55.5t-91.5 -71.5l-43 10l-7 189l-2 2q-38 -88 -112.5 -144.5t-163.5 -56.5q-157 0 -231 121q-41 71 -41 186v224q0 118 -7 192q-6 63 -27 95t-71 55zM1378 1264v110h553v-110h-553z" />
    <glyph glyph-name="ffgbreve" unicode="ff&#x11f;" horiz-adv-x="2064" 
d="M88 856q25 8 43.5 22.5t29 30.5t18.5 43t12 47.5t9.5 56.5t10.5 58q39 191 137.5 304.5t237.5 113.5q86 0 137 -39t51 -94q0 -35 -20.5 -56.5t-51.5 -21.5q-29 0 -48.5 13t-41.5 42q-23 28 -41 38.5t-49 10.5q-186 0 -186 -385v-153h291q22 0 39 4t29 8.5t22 18t15.5 23
t11.5 33t9 37.5t9 48.5t10 54.5q40 204 126 311t212 107q70 0 121 -41t51 -102q0 -38 -23 -63.5t-57 -25.5q-57 0 -84 70q-22 55 -71 55q-31 0 -57.5 -19.5t-48.5 -62t-35 -120t-13 -183.5v-153q135 3 223 8l17 -35l-17 -76h-223v-401q0 -108 4 -190q3 -64 26.5 -94.5
t88.5 -53.5l-6 -47q-72 6 -185 6q-92 0 -164 -6l-6 47q54 22 70.5 51.5t21.5 96.5q7 74 7 198v219q0 51 -2.5 78.5t-8.5 49.5t-21 30.5t-34.5 12t-54.5 3.5h-293v-401q0 -108 4 -190q3 -64 26.5 -94.5t88.5 -53.5l-6 -47q-72 6 -185 6q-92 0 -164 -6l-6 47q54 22 70.5 51.5
t21.5 96.5q7 73 7 198v303q0 58 -16.5 81.5t-80.5 37.5zM1178 -322q0 73 38 133t125 119q-68 24 -107.5 74.5t-39.5 120.5q0 134 141 242q-69 92 -69 217q0 144 98.5 244t234.5 100q60 0 134.5 -20.5t132.5 -20.5q98 0 194 8l17 -35l-17 -76h-192q67 -75 67 -200
q0 -149 -95 -246.5t-232 -97.5q-129 0 -219 75q-78 -61 -78 -143q0 -45 35.5 -72t103.5 -30l248 -9q144 -4 219.5 -80.5t75.5 -197.5q0 -143 -129.5 -244.5t-337.5 -101.5q-168 0 -258 66.5t-90 174.5zM1311 -287q0 -71 62.5 -116.5t185.5 -45.5q164 0 242.5 57.5
t78.5 139.5q0 74 -54 116t-165 42q-166 0 -250 6q-100 -94 -100 -199zM1354 1516l49 4q35 -160 84 -230.5t125 -70.5t125 70.5t84 230.5l49 -4q-6 -222 -76.5 -331.5t-181.5 -109.5t-181.5 109.5t-76.5 331.5zM1423 596q0 -133 49 -203.5t136 -70.5q172 0 172 251
q0 127 -50 200t-135 73q-78 0 -125 -63t-47 -187z" />
    <glyph glyph-name="ffebreve" unicode="ff&#x115;" horiz-adv-x="2084" 
d="M88 856q25 8 43.5 22.5t29 30.5t18.5 43t12 47.5t9.5 56.5t10.5 58q39 191 137.5 304.5t237.5 113.5q86 0 137 -39t51 -94q0 -35 -20.5 -56.5t-51.5 -21.5q-29 0 -48.5 13t-41.5 42q-23 28 -41 38.5t-49 10.5q-186 0 -186 -385v-153h291q22 0 39 4t29 8.5t22 18t15.5 23
t11.5 33t9 37.5t9 48.5t10 54.5q40 204 126 311t212 107q70 0 121 -41t51 -102q0 -38 -23 -63.5t-57 -25.5q-57 0 -84 70q-22 55 -71 55q-31 0 -57.5 -19.5t-48.5 -62t-35 -120t-13 -183.5v-153q135 3 223 8l17 -35l-17 -76h-223v-401q0 -108 4 -190q3 -64 26.5 -94.5
t88.5 -53.5l-6 -47q-72 6 -185 6q-92 0 -164 -6l-6 47q54 22 70.5 51.5t21.5 96.5q7 74 7 198v219q0 51 -2.5 78.5t-8.5 49.5t-21 30.5t-34.5 12t-54.5 3.5h-293v-401q0 -108 4 -190q3 -64 26.5 -94.5t88.5 -53.5l-6 -47q-72 6 -185 6q-92 0 -164 -6l-6 47q54 22 70.5 51.5
t21.5 96.5q7 73 7 198v303q0 58 -16.5 81.5t-80.5 37.5zM1202 434q0 213 129 356.5t320 143.5q148 0 247 -97.5t99 -244.5q0 -31 -4 -47h-631q-4 -25 -4 -78q0 -156 83 -255t208 -99q98 0 165 37.5t130 128.5l49 -31q-49 -125 -142.5 -203t-222.5 -78q-124 0 -222.5 64.5
t-151 171t-52.5 231.5zM1370 1516l49 4q35 -160 84 -230.5t125 -70.5t125 70.5t84 230.5l49 -4q-6 -222 -76.5 -331.5t-181.5 -109.5t-181.5 109.5t-76.5 331.5zM1376 627h441q-1 101 -61 158t-150 57t-150 -60t-80 -155z" />
    <glyph glyph-name="ffhcircumflex" unicode="ff&#x125;" horiz-adv-x="2193" 
d="M88 856q25 8 43.5 22.5t29 30.5t18.5 43t12 47.5t9.5 56.5t10.5 58q39 191 137.5 304.5t237.5 113.5q86 0 137 -39t51 -94q0 -35 -20.5 -56.5t-51.5 -21.5q-29 0 -48.5 13t-41.5 42q-23 28 -41 38.5t-49 10.5q-186 0 -186 -385v-153h291q22 0 39 3.5t28.5 9t20.5 18
t14.5 23.5t11 32.5t8.5 38t8.5 47.5t10.5 55q42 196 146 307t274 111q102 0 164 -47q35 24 73 55l43 -16q-10 -174 -10 -371l-2 -403l2 -2q42 81 115 133.5t160 52.5q75 0 135.5 -33.5t97.5 -93.5q43 -72 43 -180v-236q0 -137 4 -198q5 -67 22 -96.5t72 -51.5l-6 -47
q-108 6 -164 6q-55 0 -163 -6l-7 47q55 22 72.5 52t22.5 96q4 61 4 198v217q0 87 -48.5 140t-129.5 53q-104 0 -167 -64t-63 -164v-182q0 -137 4 -198q5 -67 22 -96.5t72 -51.5l-6 -47q-108 6 -164 6q-55 0 -163 -6l-6 47q55 22 72 51.5t22 96.5q4 61 4 198v653
q0 130 -4 191q-12 190 -189 190q-103 0 -166 -90t-63 -295v-153q135 3 223 8l17 -35l-17 -76h-223v-401q0 -108 4 -190q3 -64 26.5 -94.5t88.5 -53.5l-6 -47q-72 6 -185 6q-92 0 -164 -6l-6 47q54 22 70.5 51.5t21.5 96.5q7 74 7 198v219q0 51 -2.5 78.5t-8.5 49.5t-21 30.5
t-34.5 12t-54.5 3.5h-293v-401q0 -108 4 -190q3 -64 26.5 -94.5t88.5 -53.5l-6 -47q-72 6 -185 6q-92 0 -164 -6l-6 47q54 22 70.5 51.5t21.5 96.5q7 73 7 198v303q0 58 -16.5 81.5t-80.5 37.5zM1055 1620l248 207q46 37 79 37q31 0 80 -39l248 -205l-29 -43l-299 121
l-299 -121z" />
    <glyph glyph-name="ffhbar" unicode="ff&#x127;" horiz-adv-x="2193" 
d="M88 856q25 8 43.5 22.5t29 30.5t18.5 43t12 47.5t9.5 56.5t10.5 58q39 191 137.5 304.5t237.5 113.5q86 0 137 -39t51 -94q0 -35 -20.5 -56.5t-51.5 -21.5q-29 0 -48.5 13t-41.5 42q-23 28 -41 38.5t-49 10.5q-186 0 -186 -385v-153h291q22 0 39 3.5t28.5 9t20.5 18
t14.5 23.5t11 32.5t8.5 38t8.5 47.5t10.5 55q42 196 146 307t274 111q102 0 164 -47q35 24 73 55l43 -16q-10 -161 -10 -340h344v-99h-344v-335l2 -2q42 81 114 133.5t159 52.5q75 0 135.5 -33.5t97.5 -93.5q43 -72 43 -180v-236q0 -137 4 -198q5 -67 22 -96.5t72 -51.5
l-6 -47q-108 6 -164 6q-55 0 -163 -6l-7 47q55 22 72.5 52t22.5 96q4 61 4 198v217q0 87 -48.5 140t-129.5 53q-104 0 -167 -64t-63 -164v-182q0 -137 4 -198q5 -67 22 -96.5t72 -51.5l-6 -47q-108 6 -164 6q-55 0 -163 -6l-6 47q55 22 72 51.5t22 96.5q4 61 4 198v694h-107
v99h105q0 35 -2 51q-12 190 -189 190q-103 0 -166 -90t-63 -295v-153q135 3 223 8l17 -35l-17 -76h-223v-401q0 -108 4 -190q3 -64 26.5 -94.5t88.5 -53.5l-6 -47q-72 6 -185 6q-92 0 -164 -6l-6 47q54 22 70.5 51.5t21.5 96.5q7 74 7 198v219q0 51 -2.5 78.5t-8.5 49.5
t-21 30.5t-34.5 12t-54.5 3.5h-293v-401q0 -108 4 -190q3 -64 26.5 -94.5t88.5 -53.5l-6 -47q-72 6 -185 6q-92 0 -164 -6l-6 47q54 22 70.5 51.5t21.5 96.5q7 73 7 198v303q0 58 -16.5 81.5t-80.5 37.5z" />
    <glyph glyph-name="ffitilde" unicode="ff&#x129;" horiz-adv-x="1759" 
d="M88 856q25 8 43.5 22.5t29 30.5t18.5 43t12 47.5t9.5 56.5t10.5 58q39 191 137.5 304.5t237.5 113.5q86 0 137 -39t51 -94q0 -35 -20.5 -56.5t-51.5 -21.5q-29 0 -48.5 13t-41.5 42q-23 28 -41 38.5t-49 10.5q-186 0 -186 -385v-153h291q22 0 39 4t29 8.5t22 18t15.5 23
t11.5 33t9 37.5t9 48.5t10 54.5q40 204 126 311t212 107q70 0 121 -41t51 -102q0 -38 -23 -63.5t-57 -25.5q-57 0 -84 70q-22 55 -71 55q-31 0 -57.5 -19.5t-48.5 -62t-35 -120t-13 -183.5v-153q135 3 223 8l17 -35l-17 -76h-223v-401q0 -108 4 -190q3 -64 26.5 -94.5
t88.5 -53.5l-6 -47q-72 6 -185 6q-92 0 -164 -6l-6 47q54 22 70.5 51.5t21.5 96.5q7 74 7 198v219q0 51 -2.5 78.5t-8.5 49.5t-21 30.5t-34.5 12t-54.5 3.5h-293v-401q0 -108 4 -190q3 -64 26.5 -94.5t88.5 -53.5l-6 -47q-72 6 -185 6q-92 0 -164 -6l-6 47q54 22 70.5 51.5
t21.5 96.5q7 73 7 198v303q0 58 -16.5 81.5t-80.5 37.5zM1200 1157q89 139 203 139q55 0 123 -30q7 -3 24.5 -11t22.5 -10.5t17.5 -7t19.5 -6t17.5 -3t21.5 -1.5q64 0 129 51l34 -37q-89 -139 -200 -139q-53 0 -123 31q-5 2 -19 8.5t-17.5 8l-14 6t-15 6t-13 4t-14.5 3
t-14 1.5t-16 1q-64 0 -129 -51zM1319 752v43q70 32 116.5 62.5t100.5 80.5l43 -16q-10 -174 -10 -371v-154q0 -82 4 -204q2 -65 20 -95t74 -53l-6 -47q-108 6 -164 6t-164 -6l-6 47q55 22 72 51.5t22 96.5q4 61 4 204v45q0 132 -4 193q-4 62 -24.5 84t-77.5 33z" />
    <glyph glyph-name="ffibreve" unicode="ff&#x12d;" horiz-adv-x="1648" 
d="M88 856q25 8 43.5 22.5t29 30.5t18.5 43t12 47.5t9.5 56.5t10.5 58q39 191 137.5 304.5t237.5 113.5q86 0 137 -39t51 -94q0 -35 -20.5 -56.5t-51.5 -21.5q-29 0 -48.5 13t-41.5 42q-23 28 -41 38.5t-49 10.5q-186 0 -186 -385v-153h291q22 0 39 4t29 9t21.5 18t15 23
t11.5 32.5t9 38t9 48t11 54.5q43 203 134 310.5t218 107.5q71 0 128 -41.5t57 -101.5q0 -29 -14.5 -52t-37.5 -32q54 -86 138 -86q76 0 125 70.5t84 230.5l49 -4q-6 -222 -76.5 -331.5t-181.5 -109.5q-180 0 -244 268q-9 38 -32.5 60t-57.5 22q-73 0 -120.5 -90.5
t-47.5 -294.5v-153q107 0 315 4q78 2 126 12t91 35l43 -16q-10 -174 -10 -371v-154q0 -143 4 -204q5 -67 22 -96.5t72 -51.5l-6 -47q-108 6 -164 6q-55 0 -163 -6l-6 47q55 22 72 51.5t22 96.5q4 61 4 204v78q0 132 -4 193q-3 46 -15 68.5t-45.5 35t-99.5 12.5h-258v-401
q0 -108 4 -190q3 -64 26.5 -94.5t88.5 -53.5l-6 -47q-72 6 -185 6q-92 0 -164 -6l-6 47q54 22 70.5 51.5t21.5 96.5q7 74 7 198v219q0 51 -2.5 78.5t-8.5 49.5t-21 30.5t-34.5 12t-54.5 3.5h-293v-401q0 -108 4 -190q3 -64 26.5 -94.5t88.5 -53.5l-6 -47q-72 6 -185 6
q-92 0 -164 -6l-6 47q54 22 70.5 51.5t21.5 96.5q7 73 7 198v303q0 58 -16.5 81.5t-80.5 37.5z" />
    <glyph glyph-name="ffij" unicode="ff&#x133;" horiz-adv-x="2156" 
d="M88 856q25 8 43.5 22.5t29 30.5t18.5 43t12 47.5t9.5 56.5t10.5 58q39 191 137.5 304.5t237.5 113.5q86 0 137 -39t51 -94q0 -35 -20.5 -56.5t-51.5 -21.5q-29 0 -48.5 13t-41.5 42q-23 28 -41 38.5t-49 10.5q-186 0 -186 -385v-153h291q25 0 43 4t31 15t20.5 21.5
t14 33.5t10 41.5t10 54t12.5 61.5q46 197 146.5 305.5t273.5 108.5q113 0 188.5 -51t75.5 -127q0 -41 -24.5 -67.5t-67.5 -26.5q-74 0 -121 86q-42 79 -117 79q-104 0 -166.5 -89.5t-62.5 -295.5v-153q107 0 315 4q78 2 126 12t91 35l43 -16q-10 -174 -10 -371v-154
q0 -143 4 -204q5 -67 22 -96.5t72 -51.5l-6 -47q-108 6 -164 6q-55 0 -163 -6l-6 47q55 22 72 51.5t22 96.5q4 61 4 204v78q0 132 -4 193q-3 46 -15 68.5t-45.5 35t-99.5 12.5h-258v-393q0 -88 4 -198q3 -64 26.5 -94.5t88.5 -53.5l-6 -47q-108 6 -185 6q-56 0 -164 -6
l-6 47q55 22 72 51.5t22 96.5q5 76 5 198v219q0 51 -2.5 78.5t-8.5 49.5t-21 30.5t-34.5 12t-54.5 3.5h-293v-393q0 -124 4 -198q3 -64 26.5 -94.5t88.5 -53.5l-6 -47q-108 6 -185 6q-56 0 -164 -6l-6 47q55 22 72 51.5t22 96.5q5 76 5 198v303q0 58 -16.5 81.5t-80.5 37.5z
M1712 -504q73 95 100 189.5t27 251.5v505q0 130 -6 193q-4 62 -24 84t-76 33v43q72 35 118 65t99 78l43 -16q-11 -191 -11 -371v-518q0 -111 3 -205q-12 -113 -76.5 -210t-161.5 -159zM1796 1389q0 49 32.5 81.5t82.5 32.5q49 0 81.5 -32.5t32.5 -81.5q0 -50 -32.5 -82.5
t-81.5 -32.5t-82 33t-33 82z" />
    <glyph glyph-name="ffjcircumflex" unicode="ff&#x135;" horiz-adv-x="1695" 
d="M88 856q25 8 43.5 22.5t29 30.5t18.5 43t12 47.5t9.5 56.5t10.5 58q39 191 137.5 304.5t237.5 113.5q86 0 137 -39t51 -94q0 -35 -20.5 -56.5t-51.5 -21.5q-29 0 -48.5 13t-41.5 42q-23 28 -41 38.5t-49 10.5q-186 0 -186 -385v-153h291q22 0 39 4t29 8.5t22 18t15.5 23
t11.5 33t9 37.5t9 48.5t10 54.5q40 204 126 311t212 107q70 0 121 -41t51 -102q0 -38 -23 -63.5t-57 -25.5q-57 0 -84 70q-22 55 -71 55q-31 0 -57.5 -19.5t-48.5 -62t-35 -120t-13 -183.5v-153q135 3 223 8l17 -35l-17 -76h-223v-401q0 -108 4 -190q3 -64 26.5 -94.5
t88.5 -53.5l-6 -47q-72 6 -185 6q-92 0 -164 -6l-6 47q54 22 70.5 51.5t21.5 96.5q7 74 7 198v219q0 51 -2.5 78.5t-8.5 49.5t-21 30.5t-34.5 12t-54.5 3.5h-293v-401q0 -108 4 -190q3 -64 26.5 -94.5t88.5 -53.5l-6 -47q-72 6 -185 6q-92 0 -164 -6l-6 47q54 22 70.5 51.5
t21.5 96.5q7 73 7 198v303q0 58 -16.5 81.5t-80.5 37.5zM1194 1061l199 420q20 49 59 49t59 -49l199 -420l-43 -27l-215 275l-215 -275zM1251 -504q73 95 100 189.5t27 251.5v505q0 130 -6 193q-4 62 -24 84t-76 33v43q72 35 118 65t99 78l43 -16q-10 -174 -10 -371v-518
q0 -142 2 -205q-12 -113 -76.5 -210t-161.5 -159z" />
    <glyph glyph-name="ffldot" unicode="ff&#x140;" horiz-adv-x="1880" 
d="M88 856q25 8 43.5 22.5t29 30.5t18.5 43t12 47.5t9.5 56.5t10.5 58q39 191 137.5 304.5t237.5 113.5q86 0 137 -39t51 -94q0 -35 -20.5 -56.5t-51.5 -21.5q-29 0 -48.5 13t-41.5 42q-23 28 -41 38.5t-49 10.5q-184 0 -184 -385v-153h289q25 0 43 4t31 15t20.5 21.5
t14 33.5t10 41.5t10 54t12.5 61.5q92 414 420 414q102 0 164 -47q35 24 73 55l43 -16q-10 -174 -10 -371v-756q0 -143 4 -204q0 -64 19 -94.5t75 -53.5l-6 -47q-108 6 -164 6q-55 0 -163 -6l-6 47q55 22 72 51.5t22 96.5q4 61 4 204v647q0 130 -4 191q-12 190 -189 190
q-103 0 -166 -90t-63 -295v-153q135 3 223 8l17 -35l-17 -76h-223v-387q0 -47 1 -94.5t2 -77t1 -32.5q0 -63 24.5 -94t90.5 -54l-6 -47q-108 6 -185 6q-56 0 -164 -6l-6 47q55 22 72 51.5t22 96.5q5 76 5 198v219q0 51 -2.5 78.5t-8.5 49.5t-21 30.5t-34.5 12t-54.5 3.5
h-291v-395q0 -45 0.5 -90.5t1 -74t0.5 -31.5q0 -63 24.5 -94t90.5 -54l-6 -47q-108 6 -185 6q-56 0 -164 -6l-6 47q55 22 72 51.5t22 96.5q5 76 5 198v303q0 58 -16.5 81.5t-80.5 37.5zM1651 479q0 50 32.5 82.5t81.5 32.5t82 -33t33 -82t-32.5 -81.5t-82.5 -32.5
q-49 0 -81.5 32.5t-32.5 81.5z" />
    <glyph glyph-name="ffobreve" unicode="ff&#x14f;" horiz-adv-x="2193" 
d="M88 856q25 8 43.5 22.5t29 30.5t18.5 43t12 47.5t9.5 56.5t10.5 58q39 191 137.5 304.5t237.5 113.5q86 0 137 -39t51 -94q0 -35 -20.5 -56.5t-51.5 -21.5q-29 0 -48.5 13t-41.5 42q-23 28 -41 38.5t-49 10.5q-186 0 -186 -385v-153h291q22 0 39 4t29 8.5t22 18t15.5 23
t11.5 33t9 37.5t9 48.5t10 54.5q40 204 126 311t212 107q70 0 121 -41t51 -102q0 -38 -23 -63.5t-57 -25.5q-57 0 -84 70q-22 55 -71 55q-31 0 -57.5 -19.5t-48.5 -62t-35 -120t-13 -183.5v-153q135 3 223 8l17 -35l-17 -76h-223v-401q0 -108 4 -190q3 -64 26.5 -94.5
t88.5 -53.5l-6 -47q-72 6 -185 6q-92 0 -164 -6l-6 47q54 22 70.5 51.5t21.5 96.5q7 74 7 198v219q0 51 -2.5 78.5t-8.5 49.5t-21 30.5t-34.5 12t-54.5 3.5h-293v-401q0 -108 4 -190q3 -64 26.5 -94.5t88.5 -53.5l-6 -47q-72 6 -185 6q-92 0 -164 -6l-6 47q54 22 70.5 51.5
t21.5 96.5q7 73 7 198v303q0 58 -16.5 81.5t-80.5 37.5zM1202 451q0 199 133.5 341t321.5 142q196 0 326.5 -139t130.5 -344q0 -132 -59.5 -243.5t-162.5 -176t-225 -64.5q-200 0 -332.5 139.5t-132.5 344.5zM1370 469q0 -189 83 -296t220 -107q122 0 197.5 98t75.5 274
q0 180 -83.5 291t-211.5 111q-122 0 -201.5 -97.5t-79.5 -273.5zM1397 1516l49 4q35 -160 84 -230.5t125 -70.5t125 70.5t84 230.5l49 -4q-6 -222 -76.5 -331.5t-181.5 -109.5t-181.5 109.5t-76.5 331.5z" />
    <glyph glyph-name="ffscircumflex" unicode="ff&#x15d;" horiz-adv-x="1814" 
d="M88 856q25 8 43.5 22.5t29 30.5t18.5 43t12 47.5t9.5 56.5t10.5 58q39 191 137.5 304.5t237.5 113.5q86 0 137 -39t51 -94q0 -35 -20.5 -56.5t-51.5 -21.5q-29 0 -48.5 13t-41.5 42q-23 28 -41 38.5t-49 10.5q-186 0 -186 -385v-153h291q22 0 39 4t29 8.5t22 18t15.5 23
t11.5 33t9 37.5t9 48.5t10 54.5q40 204 126 311t212 107q70 0 121 -41t51 -102q0 -38 -23 -63.5t-57 -25.5q-57 0 -84 70q-22 55 -71 55q-31 0 -57.5 -19.5t-48.5 -62t-35 -120t-13 -183.5v-153q135 3 223 8l17 -35l-17 -76h-223v-401q0 -108 4 -190q3 -64 26.5 -94.5
t88.5 -53.5l-6 -47q-72 6 -185 6q-92 0 -164 -6l-6 47q54 22 70.5 51.5t21.5 96.5q7 74 7 198v219q0 51 -2.5 78.5t-8.5 49.5t-21 30.5t-34.5 12t-54.5 3.5h-293v-401q0 -108 4 -190q3 -64 26.5 -94.5t88.5 -53.5l-6 -47q-72 6 -185 6q-92 0 -164 -6l-6 47q54 22 70.5 51.5
t21.5 96.5q7 73 7 198v303q0 58 -16.5 81.5t-80.5 37.5zM1182 150q0 36 20 58.5t55 22.5q68 0 89 -79q27 -99 122 -99q67 0 107.5 34t40.5 103q0 63 -40 108.5t-140 96.5q-120 60 -173 127.5t-53 151.5q0 109 79.5 183.5t189.5 74.5q59 0 100.5 -13.5t83.5 -46.5
q53 -43 53 -100q0 -33 -19.5 -53.5t-51.5 -20.5q-57 0 -86 70q-19 40 -43 59t-68 19q-51 0 -85 -33t-34 -84q0 -60 42.5 -109t150.5 -102q119 -58 171 -124.5t52 -164.5q0 -116 -80.5 -189t-204.5 -73q-78 0 -126 14.5t-91 51.5q-61 51 -61 117zM1227 1061l198 420
q20 49 60 49q39 0 59 -49l199 -420l-43 -27l-215 275l-215 -275z" />
    <glyph glyph-name="ffubreve" unicode="ff&#x16d;" horiz-adv-x="2191" 
d="M88 856q25 8 43.5 22.5t29 30.5t18.5 43t12 47.5t9.5 56.5t10.5 58q39 191 137.5 304.5t237.5 113.5q86 0 137 -39t51 -94q0 -35 -20.5 -56.5t-51.5 -21.5q-29 0 -48.5 13t-41.5 42q-23 28 -41 38.5t-49 10.5q-186 0 -186 -385v-153h291q22 0 39 4t29 8.5t22 18t15.5 23
t11.5 33t9 37.5t9 48.5t10 54.5q40 204 126 311t212 107q70 0 121 -41t51 -102q0 -38 -23 -63.5t-57 -25.5q-57 0 -84 70q-22 55 -71 55q-31 0 -57.5 -19.5t-48.5 -62t-35 -120t-13 -183.5v-153q135 3 223 8l17 -35l-17 -76h-223v-401q0 -108 4 -190q3 -64 26.5 -94.5
t88.5 -53.5l-6 -47q-72 6 -185 6q-92 0 -164 -6l-6 47q54 22 70.5 51.5t21.5 96.5q7 74 7 198v219q0 51 -2.5 78.5t-8.5 49.5t-21 30.5t-34.5 12t-54.5 3.5h-293v-401q0 -108 4 -190q3 -64 26.5 -94.5t88.5 -53.5l-6 -47q-72 6 -185 6q-92 0 -164 -6l-6 47q54 22 70.5 51.5
t21.5 96.5q7 73 7 198v303q0 58 -16.5 81.5t-80.5 37.5zM1200 840l6 45q164 4 256 10q-2 -42 -6 -114t-6 -128t-2 -127v-233q0 -95 43.5 -144t118.5 -49q109 0 173 70t64 184v144q0 129 -6 192q-4 62 -26 94t-72 56l6 45q164 4 256 10q-2 -42 -6 -114t-6 -128t-2 -127v-88
q0 -121 6 -184q4 -62 24 -84t76 -33v-43q-60 -28 -100.5 -55.5t-91.5 -71.5l-43 10l-7 189l-2 2q-38 -88 -112.5 -144.5t-163.5 -56.5q-157 0 -231 121q-41 71 -41 186v224q0 118 -7 192q-6 63 -27 95t-71 55zM1386 1516l50 4q35 -160 84 -230.5t125 -70.5t124.5 70
t83.5 231l50 -4q-6 -222 -76.5 -331.5t-181.5 -109.5t-182 109.5t-77 331.5z" />
    <glyph glyph-name="longslslash" unicode="&#x17f;&#x142;" horiz-adv-x="1134" 
d="M88 856q30 9 49.5 26t30 44.5t16 52t12.5 66.5t13 69q45 197 150.5 307.5t279.5 110.5q110 0 172 -47q42 29 74 55l43 -16q-10 -174 -10 -371v-393l190 112l47 -79l-237 -140v-256q0 -143 4 -204q5 -67 22 -96.5t72 -51.5l-6 -47q-108 6 -164 6t-164 -6l-6 47
q55 22 72 51.5t22 96.5q4 61 4 204v172l-178 -104l-45 80l223 131v368q0 130 -4 191q-12 190 -197 190q-51 0 -92 -19.5t-74.5 -62.5t-52 -120t-18.5 -183v-657q0 -108 4 -190q3 -64 26.5 -94.5t88.5 -53.5l-6 -47q-72 6 -185 6q-92 0 -164 -6l-6 47q54 22 70.5 51.5
t21.5 96.5q7 73 7 198v303q0 58 -16.5 81.5t-80.5 37.5z" />
    <glyph glyph-name="longsthorn" unicode="&#x17f;&#xfe;" horiz-adv-x="1648" 
d="M88 856q30 9 49.5 26t30 44.5t16 52t12.5 66.5t13 69q45 197 149 307.5t273 110.5q102 0 164 -47q35 24 73 55l43 -16q-10 -174 -10 -371l-2 -403l2 -2q42 80 117 133t160 53q157 0 271 -131.5t114 -343.5q0 -108 -34.5 -201t-91.5 -156t-132.5 -99t-157.5 -36
q-154 0 -246 74q0 -321 4 -387q0 -63 24.5 -94t90.5 -54l-6 -47q-108 6 -185 6q-55 0 -163 -6l-7 47q55 22 72.5 52t22.5 96q4 61 4 199v1191q0 130 -4 191q-12 190 -189 190q-103 0 -166 -90t-63 -295v-657q0 -108 4 -190q3 -64 26.5 -94.5t88.5 -53.5l-6 -47q-72 6 -185 6
q-92 0 -164 -6l-6 47q54 22 70.5 51.5t21.5 96.5q7 73 7 198v303q0 58 -16.5 81.5t-80.5 37.5zM901 332q0 -131 70 -203t182 -72q115 0 187.5 87t72.5 251q0 190 -80 297t-200 107q-107 0 -169.5 -63t-62.5 -163v-241z" />
    <glyph glyph-name="longsb" unicode="&#x17f;b" horiz-adv-x="1642" 
d="M88 856q30 9 49.5 26t30 44.5t16 52t12.5 66.5t13 69q45 197 149 307.5t273 110.5q102 0 164 -47q35 24 73 55l43 -16q-10 -174 -10 -371v-412l2 -2q41 87 117 141t168 54q157 0 262.5 -125.5t105.5 -319.5q0 -113 -36.5 -211.5t-98.5 -166t-146 -106t-177 -38.5
q-95 0 -189.5 22.5t-150.5 59.5v995q0 130 -4 191q-12 190 -189 190q-103 0 -166 -90t-63 -295v-657q0 -108 4 -190q3 -64 26.5 -94.5t88.5 -53.5l-6 -47q-72 6 -185 6q-92 0 -164 -6l-6 47q54 22 70.5 51.5t21.5 96.5q7 73 7 198v303q0 58 -16.5 81.5t-80.5 37.5zM901 281
q0 -220 211 -220q135 0 213 102.5t78 270.5q0 167 -71.5 266t-188.5 99q-116 0 -179 -71t-63 -185v-262z" />
    <glyph glyph-name="longsh" unicode="&#x17f;h" horiz-adv-x="1636" 
d="M88 856q30 9 49.5 26t30 44.5t16 52t12.5 66.5t13 69q45 197 149 307.5t273 110.5q102 0 164 -47q35 24 73 55l43 -16q-10 -174 -10 -371v-403l2 -2q42 81 114 133.5t159 52.5q75 0 135.5 -33.5t97.5 -93.5q43 -72 43 -180v-236q0 -137 4 -198q5 -67 22 -96.5t72 -51.5
l-6 -47q-108 6 -164 6q-55 0 -163 -6l-7 47q55 22 72.5 52t22.5 96q4 61 4 198v217q0 87 -49 140t-130 53q-104 0 -166.5 -64t-62.5 -164v-182q0 -137 4 -198q5 -67 22 -96.5t72 -51.5l-6 -47q-108 6 -164 6q-55 0 -163 -6l-7 47q55 22 72.5 52t22.5 96q4 61 4 198v653
q0 130 -4 191q-12 190 -189 190q-103 0 -166 -90t-63 -295v-657q0 -108 4 -190q3 -64 26.5 -94.5t88.5 -53.5l-6 -47q-72 6 -185 6q-92 0 -164 -6l-6 47q54 22 70.5 51.5t21.5 96.5q7 73 7 198v303q0 58 -16.5 81.5t-80.5 37.5z" />
    <glyph glyph-name="longsj" unicode="&#x17f;j" horiz-adv-x="1075" 
d="M88 856q30 9 49.5 26t30 44.5t16 52t12.5 66.5t13 69q101 418 422 418q113 0 188.5 -51t75.5 -127q0 -41 -24.5 -67.5t-67.5 -26.5q-74 0 -121 86q-42 79 -117 79q-104 0 -166.5 -89.5t-62.5 -295.5v-657q0 -108 4 -190q3 -64 26.5 -94.5t88.5 -53.5l-6 -47q-72 6 -185 6
q-92 0 -164 -6l-6 47q54 22 70.5 51.5t21.5 96.5q7 73 7 198v303q0 58 -16.5 81.5t-80.5 37.5zM631 -504q73 95 100 189.5t27 251.5v505q0 132 -4 193t-25 83.5t-78 33.5v43q70 32 116.5 62.5t100.5 80.5l43 -16q-10 -174 -10 -371v-518q0 -144 2 -205q-12 -114 -76 -210.5
t-161 -158.5z" />
    <glyph glyph-name="longsk" unicode="&#x17f;k" horiz-adv-x="1497" 
d="M88 856q30 9 49.5 26t30 44.5t16 52t12.5 66.5t13 69q45 197 149 307.5t273 110.5q102 0 164 -47q35 24 73 55l43 -16q-10 -174 -10 -371v-756q0 -143 4 -204q5 -67 22 -96.5t72 -51.5l-6 -47q-108 6 -164 6q-55 0 -163 -6l-7 47q55 22 72.5 52t22.5 96q4 61 4 204v647
q0 130 -4 191q-12 190 -189 190q-103 0 -166 -90t-63 -295v-657q0 -108 4 -190q3 -64 26.5 -94.5t88.5 -53.5l-6 -47q-72 6 -185 6q-92 0 -164 -6l-6 47q54 22 70.5 51.5t21.5 96.5q7 73 7 198v303q0 58 -16.5 81.5t-80.5 37.5zM928 496l63 57q125 114 163 157t38 70
q0 35 -57 60l8 47q59 -6 141 -6q64 0 152 6l6 -47q-18 -10 -36.5 -24.5t-32 -26.5t-48 -42.5t-59.5 -52.5q-31 -28 -99 -91t-92 -85q89 -131 138 -197.5t124 -154.5q50 -58 85.5 -84t78.5 -43v-43q-41 -14 -69 -14q-58 0 -108.5 24.5t-109.5 91.5q-19 22 -36 42t-34.5 43
t-28.5 37t-30 40.5t-27 38t-30 44.5l-29 43.5t-34.5 53t-36.5 56.5z" />
    <glyph glyph-name="longsagrave" unicode="&#x17f;&#xe0;" horiz-adv-x="1394" 
d="M88 856q25 8 44 22.5t29.5 30t19.5 43.5t13 47.5t10.5 56.5t10.5 58q41 205 127 311.5t211 106.5q70 0 121 -41t51 -102q0 -38 -23 -63.5t-57 -25.5q-57 0 -84 70q-22 55 -72 55q-66 0 -109.5 -90.5t-43.5 -294.5v-657q0 -108 4 -190q3 -64 26.5 -94.5t88.5 -53.5l-6 -47
q-72 6 -185 6q-92 0 -164 -6l-6 47q54 22 70.5 51.5t21.5 96.5q7 73 7 198v303q0 58 -16.5 81.5t-80.5 37.5zM641 166q0 68 32.5 116t96.5 89q112 72 315 125v100q0 91 -43 147q-44 58 -129 58q-50 0 -95.5 -20t-100.5 -64l-39 65q32 59 104.5 103.5t157.5 44.5
q154 0 227 -107q27 -38 44.5 -97t17.5 -124v-196q0 -124 4 -187q6 -104 102 -149l-26 -82q-100 4 -149.5 44.5t-63.5 114.5h-4q-39 -90 -102 -133t-136 -43q-96 0 -154.5 55.5t-58.5 139.5zM786 201q0 -45 26 -75t77 -30q71 0 133.5 58.5t62.5 156.5v113q-17 -5 -118 -47
q-181 -77 -181 -176zM793 1446q0 36 21 60t56 24q76 0 103 -109l94 -391l-47 -20l-197 346q-30 52 -30 90z" />
    <glyph glyph-name="longsacircumflex" unicode="&#x17f;&#xe2;" horiz-adv-x="1394" 
d="M88 856q25 8 44 22.5t29.5 30t19.5 43.5t13 47.5t10.5 56.5t10.5 58q41 205 127 311.5t211 106.5q70 0 121 -41t51 -102q0 -38 -23 -63.5t-57 -25.5q-57 0 -84 70q-22 55 -72 55q-66 0 -109.5 -90.5t-43.5 -294.5v-657q0 -108 4 -190q3 -64 26.5 -94.5t88.5 -53.5l-6 -47
q-72 6 -185 6q-92 0 -164 -6l-6 47q54 22 70.5 51.5t21.5 96.5q7 73 7 198v303q0 58 -16.5 81.5t-80.5 37.5zM641 166q0 68 32.5 116t96.5 89q112 72 315 125v100q0 91 -43 147q-44 58 -129 58q-50 0 -95.5 -20t-100.5 -64l-39 65q32 59 104.5 103.5t157.5 44.5
q154 0 227 -107q27 -38 44.5 -97t17.5 -124v-196q0 -124 4 -187q6 -104 102 -149l-26 -82q-100 4 -149.5 44.5t-63.5 114.5h-4q-39 -90 -102 -133t-136 -43q-96 0 -154.5 55.5t-58.5 139.5zM713 1061l198 420q20 49 60 49q39 0 59 -49l199 -420l-43 -27l-215 275l-215 -275z
M786 201q0 -45 26 -75t77 -30q71 0 133.5 58.5t62.5 156.5v113q-17 -5 -118 -47q-181 -77 -181 -176z" />
    <glyph glyph-name="longsatilde" unicode="&#x17f;&#xe3;" horiz-adv-x="1435" 
d="M88 856q25 8 44 22.5t29.5 30t19.5 43.5t13 47.5t10.5 56.5t10.5 58q41 205 127 311.5t211 106.5q70 0 121 -41t51 -102q0 -38 -23 -63.5t-57 -25.5q-57 0 -84 70q-22 55 -72 55q-66 0 -109.5 -90.5t-43.5 -294.5v-657q0 -108 4 -190q3 -64 26.5 -94.5t88.5 -53.5l-6 -47
q-72 6 -185 6q-92 0 -164 -6l-6 47q54 22 70.5 51.5t21.5 96.5q7 73 7 198v303q0 58 -16.5 81.5t-80.5 37.5zM682 166q0 68 32.5 116t96.5 89q112 72 315 125v100q0 91 -43 147q-44 58 -129 58q-50 0 -95.5 -20t-100.5 -64l-39 65q32 59 104.5 103.5t157.5 44.5
q154 0 227 -107q27 -38 44.5 -97t17.5 -124v-196q0 -124 4 -187q6 -104 102 -149l-26 -82q-100 4 -149.5 44.5t-63.5 114.5h-4q-39 -90 -102 -133t-136 -43q-96 0 -154.5 55.5t-58.5 139.5zM723 1219q89 139 203 139q53 0 123 -31q8 -4 24.5 -11.5l22 -10t17.5 -7t19 -6
t17.5 -3t21.5 -1.5q64 0 129 51l35 -36q-90 -140 -200 -140q-53 0 -123 31q-7 3 -24.5 11t-22.5 10.5t-17.5 7t-19.5 6t-17.5 3t-21.5 1.5q-64 0 -129 -51zM827 201q0 -45 26 -75t77 -30q71 0 133.5 58.5t62.5 156.5v113q-17 -5 -118 -47q-181 -77 -181 -176z" />
    <glyph glyph-name="longsaring" unicode="&#x17f;&#xe5;" horiz-adv-x="1415" 
d="M88 856q25 8 44 22.5t29.5 30t19.5 43.5t13 47.5t10.5 56.5t10.5 58q41 205 127 311.5t211 106.5q70 0 121 -41t51 -102q0 -38 -23 -63.5t-57 -25.5q-57 0 -84 70q-22 55 -72 55q-66 0 -109.5 -90.5t-43.5 -294.5v-657q0 -108 4 -190q3 -64 26.5 -94.5t88.5 -53.5l-6 -47
q-72 6 -185 6q-92 0 -164 -6l-6 47q54 22 70.5 51.5t21.5 96.5q7 73 7 198v303q0 58 -16.5 81.5t-80.5 37.5zM662 166q0 68 32.5 116t96.5 89q112 72 315 125v100q0 91 -43 147q-44 58 -129 58q-90 0 -197 -84l-39 65q32 59 105 103.5t158 44.5q154 0 227 -107
q61 -87 61 -221v-196q0 -124 4 -187q6 -103 103 -149l-27 -82q-100 4 -149.5 44.5t-63.5 114.5h-4q-39 -90 -102 -133t-136 -43q-96 0 -154 55.5t-58 139.5zM786 1317q0 88 61.5 150.5t149.5 62.5t150.5 -62.5t62.5 -150.5t-62.5 -149.5t-150.5 -61.5t-149.5 61.5
t-61.5 149.5zM807 201q0 -45 25.5 -75t76.5 -30q71 0 134 58.5t63 156.5v113q-22 -7 -119 -47q-180 -76 -180 -176zM874 1315q0 -53 34.5 -89t86.5 -36q54 0 89.5 36t35.5 89q0 54 -35.5 91.5t-89.5 37.5q-52 0 -86.5 -37.5t-34.5 -91.5z" />
    <glyph glyph-name="longsedieresis" unicode="&#x17f;&#xeb;" horiz-adv-x="1527" 
d="M88 856q25 8 44 22.5t29.5 30t19.5 43.5t13 47.5t10.5 56.5t10.5 58q41 205 127 311.5t211 106.5q70 0 121 -41t51 -102q0 -38 -23 -63.5t-57 -25.5q-57 0 -84 70q-22 55 -72 55q-66 0 -109.5 -90.5t-43.5 -294.5v-657q0 -108 4 -190q3 -64 26.5 -94.5t88.5 -53.5l-6 -47
q-72 6 -185 6q-92 0 -164 -6l-6 47q54 22 70.5 51.5t21.5 96.5q7 73 7 198v303q0 58 -16.5 81.5t-80.5 37.5zM645 434q0 213 129 356.5t320 143.5q148 0 247 -97.5t99 -244.5q0 -31 -4 -47h-631q-4 -25 -4 -78q0 -156 83 -255t208 -99q98 0 164.5 37.5t129.5 128.5l50 -31
q-49 -125 -142.5 -203t-222.5 -78q-124 0 -222.5 64.5t-151 171t-52.5 231.5zM807 1333q0 43 29.5 73t72.5 30q44 0 74.5 -30t30.5 -73q0 -44 -30.5 -74t-74.5 -30q-43 0 -72.5 30t-29.5 74zM819 627h441q-1 101 -61 158t-150 57t-150 -60t-80 -155zM1153 1333q0 43 29.5 73
t72.5 30q44 0 74.5 -30t30.5 -73q0 -44 -30.5 -74t-74.5 -30q-43 0 -72.5 30t-29.5 74z" />
    <glyph glyph-name="longsiacute" unicode="&#x17f;&#xed;" horiz-adv-x="1091" 
d="M88 856q25 8 44 22.5t29.5 30t19.5 43.5t13 47.5t10.5 56.5t10.5 58q41 205 127 311.5t211 106.5q70 0 121 -41t51 -102q0 -38 -23 -63.5t-57 -25.5q-57 0 -84 70q-22 55 -72 55q-66 0 -109.5 -90.5t-43.5 -294.5v-657q0 -108 4 -190q3 -64 26.5 -94.5t88.5 -53.5l-6 -47
q-72 6 -185 6q-92 0 -164 -6l-6 47q54 22 70.5 51.5t21.5 96.5q7 73 7 198v303q0 58 -16.5 81.5t-80.5 37.5zM651 752v43q70 32 116.5 62.5t100.5 80.5l43 -16q-10 -174 -10 -371v-154q0 -143 4 -204q5 -67 22 -96.5t72 -51.5l-6 -47q-108 6 -164 6q-55 0 -163 -6l-7 47
q55 22 72.5 52t22.5 96q4 61 4 204v45q0 132 -4 193t-25 83.5t-78 33.5zM741 1030l95 391q27 109 102 109q35 0 56.5 -24t21.5 -60q0 -37 -31 -90l-197 -346z" />
    <glyph glyph-name="longsigrave" unicode="&#x17f;&#xec;" horiz-adv-x="1091" 
d="M88 856q30 9 49.5 26t30 45t15.5 51.5t11.5 66.5t12.5 69q44 195 139.5 306.5t247.5 111.5q98 0 152 -48t77 -141l76 -313l-47 -20l-180 317q-30 53 -62 75.5t-80 22.5q-87 0 -140.5 -90t-53.5 -295v-657q0 -108 4 -190q3 -64 26.5 -94.5t88.5 -53.5l-6 -47q-72 6 -185 6
q-92 0 -164 -6l-6 47q54 22 70.5 51.5t21.5 96.5q7 73 7 198v303q0 58 -16.5 81.5t-80.5 37.5zM651 752v43q70 32 116.5 62.5t100.5 80.5l43 -16q-10 -174 -10 -371v-154q0 -143 4 -204q5 -67 22 -96.5t72 -51.5l-6 -47q-108 6 -164 6q-55 0 -163 -6l-7 47q55 22 72.5 52
t22.5 96q4 61 4 204v45q0 132 -4 193t-25 83.5t-78 33.5z" />
    <glyph glyph-name="longsicircumflex" unicode="&#x17f;&#xee;" horiz-adv-x="1177" 
d="M88 856q25 8 44 22.5t29.5 30t19.5 43.5t13 47.5t10.5 56.5t10.5 58q41 205 127 311.5t211 106.5q70 0 121 -41t51 -102q0 -38 -23 -63.5t-57 -25.5q-57 0 -84 70q-22 55 -72 55q-66 0 -109.5 -90.5t-43.5 -294.5v-657q0 -108 4 -190q3 -64 26.5 -94.5t88.5 -53.5l-6 -47
q-72 6 -185 6q-92 0 -164 -6l-6 47q54 22 70.5 51.5t21.5 96.5q7 73 7 198v303q0 58 -16.5 81.5t-80.5 37.5zM662 1061l198 420q20 49 60 49q39 0 59 -49l199 -420l-43 -27l-215 275l-215 -275zM735 752v43q70 32 116.5 62.5t100.5 80.5l43 -16q-10 -174 -10 -371v-154
q0 -82 4 -204q2 -65 20 -95t74 -53l-6 -47q-108 6 -164 6q-55 0 -163 -6l-7 47q55 22 72.5 52t22.5 96q4 61 4 204v45q0 132 -4 193t-25 83.5t-78 33.5z" />
    <glyph glyph-name="longsidieresis" unicode="&#x17f;&#xef;" horiz-adv-x="1214" 
d="M88 856q25 8 44 22.5t29.5 30t19.5 43.5t13 47.5t10.5 56.5t10.5 58q41 205 127 311.5t211 106.5q70 0 121 -41t51 -102q0 -38 -23 -63.5t-57 -25.5q-57 0 -84 70q-22 55 -72 55q-66 0 -109.5 -90.5t-43.5 -294.5v-657q0 -108 4 -190q3 -64 26.5 -94.5t88.5 -53.5l-6 -47
q-72 6 -185 6q-92 0 -164 -6l-6 47q54 22 70.5 51.5t21.5 96.5q7 73 7 198v303q0 58 -16.5 81.5t-80.5 37.5zM686 1210q0 43 29.5 73t72.5 30q44 0 74.5 -30t30.5 -73q0 -44 -30.5 -74t-74.5 -30q-43 0 -72.5 30t-29.5 74zM774 752v43q70 32 116.5 62.5t100.5 80.5l43 -16
q-10 -174 -10 -371v-154q0 -82 4 -204q2 -65 20 -95t74 -53l-6 -47q-108 6 -164 6t-164 -6l-6 47q55 22 72.5 52t22.5 96q4 61 4 204v45q0 132 -4 193t-25 83.5t-78 33.5zM1032 1210q0 43 30 73t73 30q44 0 74 -30t30 -73q0 -44 -30 -74t-74 -30q-43 0 -73 30t-30 74z" />
    <glyph glyph-name="longsodieresis" unicode="&#x17f;&#xf6;" horiz-adv-x="1636" 
d="M88 856q25 8 44 22.5t29.5 30t19.5 43.5t13 47.5t10.5 56.5t10.5 58q41 205 127 311.5t211 106.5q70 0 121 -41t51 -102q0 -38 -23 -63.5t-57 -25.5q-57 0 -84 70q-22 55 -72 55q-66 0 -109.5 -90.5t-43.5 -294.5v-657q0 -108 4 -190q3 -64 26.5 -94.5t88.5 -53.5l-6 -47
q-72 6 -185 6q-92 0 -164 -6l-6 47q54 22 70.5 51.5t21.5 96.5q7 73 7 198v303q0 58 -16.5 81.5t-80.5 37.5zM645 451q0 199 133.5 341t321.5 142q129 0 233.5 -63.5t163.5 -174.5t59 -245q0 -132 -59.5 -243.5t-162 -176t-224.5 -64.5q-200 0 -332.5 139.5t-132.5 344.5z
M813 469q0 -189 83 -296t220 -107q122 0 197.5 98t75.5 274q0 180 -83.5 291t-211.5 111q-122 0 -201.5 -97.5t-79.5 -273.5zM813 1333q0 43 29.5 73t72.5 30q44 0 74.5 -30t30.5 -73q0 -44 -30.5 -74t-74.5 -30q-43 0 -72.5 30t-29.5 74zM1159 1333q0 43 30 73t73 30
q44 0 74 -30t30 -73q0 -44 -30 -74t-74 -30q-43 0 -73 30t-30 74z" />
    <glyph glyph-name="longsotilde" unicode="&#x17f;&#xf5;" horiz-adv-x="1636" 
d="M88 856q25 8 44 22.5t29.5 30t19.5 43.5t13 47.5t10.5 56.5t10.5 58q41 205 127 311.5t211 106.5q70 0 121 -41t51 -102q0 -38 -23 -63.5t-57 -25.5q-57 0 -84 70q-22 55 -72 55q-66 0 -109.5 -90.5t-43.5 -294.5v-657q0 -108 4 -190q3 -64 26.5 -94.5t88.5 -53.5l-6 -47
q-72 6 -185 6q-92 0 -164 -6l-6 47q54 22 70.5 51.5t21.5 96.5q7 73 7 198v303q0 58 -16.5 81.5t-80.5 37.5zM645 451q0 199 133.5 341t321.5 142q129 0 233.5 -63.5t163.5 -174.5t59 -245q0 -132 -59.5 -243.5t-162 -176t-224.5 -64.5q-200 0 -332.5 139.5t-132.5 344.5z
M811 1280q89 139 203 139q56 0 123 -30q7 -3 24.5 -11t22.5 -10.5t17.5 -7t19.5 -6t17.5 -3t21.5 -1.5q64 0 129 51l34 -37q-89 -139 -200 -139q-55 0 -123 30q-7 3 -24.5 11t-22.5 10.5t-17.5 7t-19.5 6t-17.5 3t-21.5 1.5q-64 0 -129 -51zM813 469q0 -189 83 -296
t220 -107q122 0 197.5 98t75.5 274q0 180 -83.5 291t-211.5 111q-122 0 -201.5 -97.5t-79.5 -273.5z" />
    <glyph glyph-name="longsutilde" unicode="&#x17f;&#x169;" horiz-adv-x="1634" 
d="M88 856q25 8 44 22.5t29.5 30t19.5 43.5t13 47.5t10.5 56.5t10.5 58q41 205 127 311.5t211 106.5q70 0 121 -41t51 -102q0 -38 -23 -63.5t-57 -25.5q-57 0 -84 70q-22 55 -72 55q-66 0 -109.5 -90.5t-43.5 -294.5v-657q0 -108 4 -190q3 -64 26.5 -94.5t88.5 -53.5l-6 -47
q-72 6 -185 6q-92 0 -164 -6l-6 47q54 22 70.5 51.5t21.5 96.5q7 73 7 198v303q0 58 -16.5 81.5t-80.5 37.5zM643 840l6 45q164 4 256 10q-2 -42 -6 -114t-6 -128t-2 -127v-233q0 -95 43.5 -144t118.5 -49q109 0 173 70t64 184v144q0 129 -6 192q-4 62 -26 94t-72 56l6 45
q164 4 256 10q-2 -42 -6 -114t-6 -128t-2 -127v-88q0 -121 6 -184q4 -62 24 -84t76 -33v-43q-60 -28 -100.5 -55.5t-91.5 -71.5l-43 10l-7 189l-2 2q-38 -88 -112.5 -144.5t-163.5 -56.5q-158 0 -232 121q-40 70 -40 186v224q0 118 -7 192q-6 63 -27 95t-71 55zM791 1280
q89 139 202 139q55 0 123 -30q7 -3 24.5 -11t22.5 -10.5t17.5 -7t19.5 -6t17.5 -3t21.5 -1.5q64 0 129 51l35 -37q-89 -139 -201 -139q-56 0 -123 30q-7 3 -24.5 11t-22.5 10.5t-17.5 7t-19.5 6t-17.5 3t-21.5 1.5q-64 0 -129 -51z" />
    <glyph glyph-name="longsydieresis" unicode="&#x17f;&#xff;" horiz-adv-x="1478" 
d="M88 856q25 8 44 22.5t29.5 30t19.5 43.5t13 47.5t10.5 56.5t10.5 58q41 205 127 311.5t211 106.5q70 0 121 -41t51 -102q0 -38 -23 -63.5t-57 -25.5q-57 0 -84 70q-22 55 -72 55q-66 0 -109.5 -90.5t-43.5 -294.5v-657q0 -108 4 -190q3 -64 26.5 -94.5t88.5 -53.5l-6 -47
q-72 6 -185 6q-92 0 -164 -6l-6 47q54 22 70.5 51.5t21.5 96.5q7 73 7 198v303q0 58 -16.5 81.5t-80.5 37.5zM563 -479q0 35 22 59.5t56 24.5q20 0 46 -5.5t44 -5.5q59 0 105 99l147 319l-203 502q-3 8 -32.5 85.5t-49.5 121.5q-23 51 -40 72.5t-54 46.5l8 47q89 -6 166 -6
q54 0 142 6l6 -47q-62 -28 -62 -82q0 -37 13 -83t57 -157l127 -319l135 317q64 150 64 215q0 36 -14.5 61t-57.5 48l8 47q59 -6 139 -6q74 0 133 6l7 -47q-45 -40 -99 -148q-18 -36 -47.5 -103.5t-32.5 -74.5l-362 -819q-58 -131 -119 -195q-65 -65 -156 -65
q-41 0 -68.5 24.5t-27.5 61.5zM811 1333q0 43 29.5 73t72.5 30q44 0 74.5 -30t30.5 -73q0 -44 -30.5 -74t-74.5 -30q-43 0 -72.5 30t-29.5 74zM1157 1333q0 43 30 73t73 30q44 0 74 -30t30 -73q0 -44 -30 -74t-74 -30q-43 0 -73 30t-30 74z" />
    <glyph glyph-name="longslcaron" unicode="&#x17f;&#x13e;" horiz-adv-x="1193" 
d="M88 856q30 9 49.5 26t30 44.5t16 52t12.5 66.5t13 69q45 197 149 307.5t273 110.5q102 0 164 -47q35 24 73 55l43 -16q-10 -174 -10 -371v-756q0 -143 4 -204q0 -64 19 -94.5t75 -53.5l-6 -47q-108 6 -164 6q-55 0 -163 -6l-7 47q55 22 72.5 52t22.5 96q4 61 4 204v647
q0 130 -4 191q-12 190 -189 190q-49 0 -88 -19.5t-71 -62.5t-50 -120t-18 -183v-649q0 -76 4 -198q2 -64 25 -94.5t88 -53.5l-6 -47q-108 6 -185 6q-56 0 -164 -6l-6 47q55 22 72 51.5t22 96.5q5 76 5 198v303q0 58 -16.5 81.5t-80.5 37.5zM1042 1149q88 33 121 66t33 71
q0 52 -57 84q-37 21 -54.5 41.5t-17.5 52.5q0 30 23 52t57 22q56 0 100.5 -52.5t44.5 -133.5q0 -101 -56.5 -161t-176.5 -93z" />
    <glyph glyph-name="longszdotaccent" unicode="&#x17f;&#x17c;" horiz-adv-x="1398" 
d="M88 856q25 8 44 22.5t29.5 30t19.5 43.5t13 47.5t10.5 56.5t10.5 58q41 205 127 311.5t211 106.5q70 0 121 -41t51 -102q0 -38 -23 -63.5t-57 -25.5q-57 0 -84 70q-22 55 -72 55q-66 0 -109.5 -90.5t-43.5 -294.5v-657q0 -108 4 -190q3 -64 26.5 -94.5t88.5 -53.5l-6 -47
q-72 6 -185 6q-92 0 -164 -6l-6 47q54 22 70.5 51.5t21.5 96.5q7 73 7 198v303q0 58 -16.5 81.5t-80.5 37.5zM623 78q131 177 143 194l364 521h-126q-87 0 -148 -9q-54 -8 -83 -36t-58 -103l-53 10q13 152 30 236q137 -10 240 -10h176q7 0 205 6l12 -53q-71 -95 -154 -216
l-372 -530h157q88 0 160 10q66 10 94 62q25 37 56 123l55 -11q-12 -184 -29 -282q-12 0 -51.5 3t-89 5t-111.5 2h-133q-96 0 -260 -4zM870 1389q0 49 32.5 81.5t82.5 32.5t82.5 -32.5t32.5 -81.5t-33 -82t-82 -33t-82 33t-33 82z" />
    <glyph glyph-name="longsabreve" unicode="&#x17f;&#x103;" horiz-adv-x="1454" 
d="M88 856q25 8 44 22.5t29.5 30t19.5 43.5t13 47.5t10.5 56.5t10.5 58q41 205 127 311.5t211 106.5q70 0 121 -41t51 -102q0 -38 -23 -63.5t-57 -25.5q-57 0 -84 70q-22 55 -72 55q-66 0 -109.5 -90.5t-43.5 -294.5v-657q0 -108 4 -190q3 -64 26.5 -94.5t88.5 -53.5l-6 -47
q-72 6 -185 6q-92 0 -164 -6l-6 47q54 22 70.5 51.5t21.5 96.5q7 73 7 198v303q0 58 -16.5 81.5t-80.5 37.5zM700 166q0 68 32.5 116t96.5 89q112 72 316 125v100q0 91 -43 147q-44 58 -129 58q-90 0 -197 -84l-39 65q32 59 104.5 103.5t157.5 44.5q155 0 228 -107
q61 -87 61 -221v-196q0 -124 4 -187q6 -103 103 -149l-27 -82q-100 4 -149.5 44.5t-63.5 114.5h-4q-39 -90 -102 -133t-136 -43q-96 0 -154.5 55.5t-58.5 139.5zM772 1516l49 4q35 -160 84 -230.5t125 -70.5t125 70.5t84 230.5l49 -4q-6 -222 -76.5 -331.5t-181.5 -109.5
t-181.5 109.5t-76.5 331.5zM846 201q0 -45 25.5 -75t76.5 -30q71 0 134 58.5t63 156.5v113q-22 -7 -119 -47q-180 -76 -180 -176z" />
    <glyph glyph-name="longslacute" unicode="&#x17f;&#x13a;" horiz-adv-x="1091" 
d="M88 856q30 9 49.5 26t30 44.5t16 52t12.5 66.5t13 69q45 197 149 307.5t273 110.5q102 0 164 -47q35 24 73 55l43 -16q-10 -174 -10 -371v-756q0 -143 4 -204q0 -64 19 -94.5t75 -53.5l-6 -47q-108 6 -164 6q-55 0 -163 -6l-7 47q55 22 72.5 52t22.5 96q4 61 4 204v647
q0 130 -4 191q-12 190 -189 190q-49 0 -88 -19.5t-71 -62.5t-50 -120t-18 -183v-649q0 -76 4 -198q2 -64 25 -94.5t88 -53.5l-6 -47q-108 6 -185 6q-56 0 -164 -6l-6 47q55 22 72 51.5t22 96.5q5 76 5 198v303q0 58 -16.5 81.5t-80.5 37.5zM571 1620l342 209q51 31 88 31
t59.5 -23.5t22.5 -60.5q0 -39 -26 -61.5t-86 -37.5l-381 -106z" />
    <glyph glyph-name="longsecaron" unicode="&#x17f;&#x11b;" horiz-adv-x="1527" 
d="M88 856q25 8 44 22.5t29.5 30t19.5 43.5t13 47.5t10.5 56.5t10.5 58q41 205 127 311.5t211 106.5q70 0 121 -41t51 -102q0 -38 -23 -63.5t-57 -25.5q-57 0 -84 70q-22 55 -72 55q-66 0 -109.5 -90.5t-43.5 -294.5v-657q0 -108 4 -190q3 -64 26.5 -94.5t88.5 -53.5l-6 -47
q-72 6 -185 6q-92 0 -164 -6l-6 47q54 22 70.5 51.5t21.5 96.5q7 73 7 198v303q0 58 -16.5 81.5t-80.5 37.5zM645 434q0 213 129 356.5t320 143.5q148 0 247 -97.5t99 -244.5q0 -31 -4 -47h-631q-4 -25 -4 -78q0 -156 83 -255t208 -99q98 0 164.5 37.5t129.5 128.5l50 -31
q-49 -125 -142.5 -203t-222.5 -78q-124 0 -222.5 64.5t-151 171t-52.5 231.5zM813 1503l43 27l215 -275l215 275l43 -27l-199 -420q-20 -49 -59 -49t-59 49zM819 627h441q-1 101 -61 158t-150 57t-150 -60t-80 -155z" />
    <glyph glyph-name="longsrcaron" unicode="&#x17f;&#x159;" horiz-adv-x="1282" 
d="M88 856q25 8 44 22.5t29.5 30t19.5 43.5t13 47.5t10.5 56.5t10.5 58q41 205 127 311.5t211 106.5q70 0 121 -41t51 -102q0 -38 -23 -63.5t-57 -25.5q-57 0 -84 70q-22 55 -72 55q-66 0 -109.5 -90.5t-43.5 -294.5v-657q0 -108 4 -190q3 -64 26.5 -94.5t88.5 -53.5l-6 -47
q-72 6 -185 6q-92 0 -164 -6l-6 47q54 22 70.5 51.5t21.5 96.5q7 73 7 198v303q0 58 -16.5 81.5t-80.5 37.5zM668 752v43q72 35 118 65t99 78l43 -16q-9 -101 -13 -199l3 -2q41 100 106.5 156.5t138.5 56.5q61 0 96 -30t35 -73q0 -71 -73 -71q-27 0 -65 18.5t-62 18.5
q-75 0 -125.5 -83.5t-50.5 -226.5v-96q0 -135 4 -198q5 -66 27 -97.5t87 -50.5l-6 -47q-72 6 -184 6q-92 0 -164 -6l-6 47q54 22 70.5 51.5t21.5 96.5q6 63 6 198v51q0 130 -6 193q-4 62 -24 84t-76 33zM758 1503l43 27l215 -275l215 275l43 -27l-199 -420q-20 -49 -59 -49
q-40 0 -60 49z" />
    <glyph glyph-name="longsamacron" unicode="&#x17f;&#x101;" horiz-adv-x="1456" 
d="M88 856q25 8 44 22.5t29.5 30t19.5 43.5t13 47.5t10.5 56.5t10.5 58q41 205 127 311.5t211 106.5q70 0 121 -41t51 -102q0 -38 -23 -63.5t-57 -25.5q-57 0 -84 70q-22 55 -72 55q-66 0 -109.5 -90.5t-43.5 -294.5v-657q0 -108 4 -190q3 -64 26.5 -94.5t88.5 -53.5l-6 -47
q-72 6 -185 6q-92 0 -164 -6l-6 47q54 22 70.5 51.5t21.5 96.5q7 73 7 198v303q0 58 -16.5 81.5t-80.5 37.5zM702 166q0 68 32.5 116t96.5 89q112 72 316 125v100q0 91 -43 147q-44 58 -129 58q-90 0 -197 -84l-39 65q32 59 104.5 103.5t157.5 44.5q155 0 228 -107
q61 -87 61 -221v-196q0 -124 4 -187q6 -103 103 -149l-27 -82q-100 4 -149.5 44.5t-63.5 114.5h-4q-39 -90 -102 -133t-136 -43q-96 0 -154.5 55.5t-58.5 139.5zM754 1202v111h553v-111h-553zM848 201q0 -45 25.5 -75t76.5 -30q71 0 134 58.5t63 156.5v113q-21 -7 -119 -47
q-180 -76 -180 -176z" />
    <glyph glyph-name="longsemacron" unicode="&#x17f;&#x113;" horiz-adv-x="1527" 
d="M88 856q25 8 44 22.5t29.5 30t19.5 43.5t13 47.5t10.5 56.5t10.5 58q41 205 127 311.5t211 106.5q70 0 121 -41t51 -102q0 -38 -23 -63.5t-57 -25.5q-57 0 -84 70q-22 55 -72 55q-66 0 -109.5 -90.5t-43.5 -294.5v-657q0 -108 4 -190q3 -64 26.5 -94.5t88.5 -53.5l-6 -47
q-72 6 -185 6q-92 0 -164 -6l-6 47q54 22 70.5 51.5t21.5 96.5q7 73 7 198v303q0 58 -16.5 81.5t-80.5 37.5zM645 434q0 213 129 356.5t320 143.5q148 0 247 -97.5t99 -244.5q0 -31 -4 -47h-631q-4 -25 -4 -78q0 -156 83 -255t208 -99q98 0 164.5 37.5t129.5 128.5l50 -31
q-49 -125 -142.5 -203t-222.5 -78q-124 0 -222.5 64.5t-151 171t-52.5 231.5zM809 1264v110h553v-110h-553zM819 627h441q-1 101 -61 158t-150 57t-150 -60t-80 -155z" />
    <glyph glyph-name="longsiogonek" unicode="&#x17f;&#x12f;" horiz-adv-x="1091" 
d="M88 856q30 9 49.5 26t30 44.5t16 52t12.5 66.5t13 69q101 418 422 418q113 0 188.5 -51t75.5 -127q0 -41 -24.5 -67.5t-67.5 -26.5q-74 0 -121 86q-42 79 -117 79q-227 0 -227 -385v-649q0 -76 4 -198q2 -64 25 -94.5t88 -53.5l-6 -47q-108 6 -185 6q-56 0 -164 -6l-6 47
q55 22 72 51.5t22 96.5q5 76 5 198v303q0 58 -16.5 81.5t-80.5 37.5zM651 752v43q70 32 116.5 62.5t100.5 80.5l43 -16q-10 -174 -10 -371v-154q0 -143 4 -204q5 -67 22 -96.5t72 -51.5l-6 -47q-90 4 -108 4q-121 -107 -121 -209q0 -47 25.5 -71.5t62.5 -24.5q67 0 94 72
l47 -15q-12 -82 -54.5 -127t-109.5 -45q-70 0 -118.5 47.5t-48.5 122.5q0 137 147 252q-21 0 -69 -2.5t-74 -3.5l-7 47q55 22 72.5 52t22.5 96q4 61 4 204v45q0 132 -4 193t-25 83.5t-78 33.5z" />
    <glyph glyph-name="longsimacron" unicode="&#x17f;&#x12b;" horiz-adv-x="1193" 
d="M88 856q25 8 44 22.5t29.5 30t19.5 43.5t13 47.5t10.5 56.5t10.5 58q41 205 127 311.5t211 106.5q70 0 121 -41t51 -102q0 -38 -23 -63.5t-57 -25.5q-57 0 -84 70q-22 55 -72 55q-66 0 -109.5 -90.5t-43.5 -294.5v-657q0 -108 4 -190q3 -64 26.5 -94.5t88.5 -53.5l-6 -47
q-72 6 -185 6q-92 0 -164 -6l-6 47q54 22 70.5 51.5t21.5 96.5q7 73 7 198v303q0 58 -16.5 81.5t-80.5 37.5zM666 1141v110h553v-110h-553zM754 752v43q70 32 116.5 62.5t100.5 80.5l43 -16q-10 -174 -10 -371v-154q0 -82 4 -204q2 -65 20 -95t74 -53l-6 -47q-108 6 -164 6
t-164 -6l-6 47q55 22 72 51.5t22 96.5q4 61 4 204v45q0 132 -4 193q-4 62 -24.5 84t-77.5 33z" />
    <glyph glyph-name="longsomacron" unicode="&#x17f;&#x14d;" horiz-adv-x="1636" 
d="M88 856q25 8 44 22.5t29.5 30t19.5 43.5t13 47.5t10.5 56.5t10.5 58q41 205 127 311.5t211 106.5q70 0 121 -41t51 -102q0 -38 -23 -63.5t-57 -25.5q-57 0 -84 70q-22 55 -72 55q-66 0 -109.5 -90.5t-43.5 -294.5v-657q0 -108 4 -190q3 -64 26.5 -94.5t88.5 -53.5l-6 -47
q-72 6 -185 6q-92 0 -164 -6l-6 47q54 22 70.5 51.5t21.5 96.5q7 73 7 198v303q0 58 -16.5 81.5t-80.5 37.5zM645 451q0 199 133.5 341t321.5 142q129 0 233.5 -63.5t163.5 -174.5t59 -245q0 -132 -59.5 -243.5t-162 -176t-224.5 -64.5q-200 0 -332.5 139.5t-132.5 344.5z
M813 469q0 -189 83 -296t220 -107q122 0 197.5 98t75.5 274q0 180 -83.5 291t-211.5 111q-122 0 -201.5 -97.5t-79.5 -273.5zM821 1264v110h553v-110h-553z" />
    <glyph glyph-name="longslcommaaccent" unicode="&#x17f;&#x13c;" horiz-adv-x="1091" 
d="M88 856q30 9 49.5 26t30 44.5t16 52t12.5 66.5t13 69q45 197 149 307.5t273 110.5q102 0 164 -47q35 24 73 55l43 -16q-10 -174 -10 -371v-756q0 -143 4 -204q0 -64 19 -94.5t75 -53.5l-6 -47q-108 6 -164 6q-55 0 -163 -6l-7 47q55 22 72.5 52t22.5 96q4 61 4 204v647
q0 130 -4 191q-12 190 -189 190q-49 0 -88 -19.5t-71 -62.5t-50 -120t-18 -183v-649q0 -76 4 -198q2 -64 25 -94.5t88 -53.5l-6 -47q-108 6 -185 6q-56 0 -164 -6l-6 47q55 22 72 51.5t22 96.5q5 76 5 198v303q0 58 -16.5 81.5t-80.5 37.5zM702 -512q88 33 121 66t33 71
q0 52 -57 84q-37 21 -54.5 41.5t-17.5 52.5q0 30 23 52t57 22q56 0 100.5 -52.5t44.5 -133.5q0 -101 -56.5 -161t-176.5 -93z" />
    <glyph glyph-name="longsumacron" unicode="&#x17f;&#x16b;" horiz-adv-x="1634" 
d="M88 856q25 8 44 22.5t29.5 30t19.5 43.5t13 47.5t10.5 56.5t10.5 58q41 205 127 311.5t211 106.5q70 0 121 -41t51 -102q0 -38 -23 -63.5t-57 -25.5q-57 0 -84 70q-22 55 -72 55q-66 0 -109.5 -90.5t-43.5 -294.5v-657q0 -108 4 -190q3 -64 26.5 -94.5t88.5 -53.5l-6 -47
q-72 6 -185 6q-92 0 -164 -6l-6 47q54 22 70.5 51.5t21.5 96.5q7 73 7 198v303q0 58 -16.5 81.5t-80.5 37.5zM643 840l6 45q164 4 256 10q-2 -42 -6 -114t-6 -128t-2 -127v-233q0 -95 43.5 -144t118.5 -49q109 0 173 70t64 184v144q0 129 -6 192q-4 62 -26 94t-72 56l6 45
q164 4 256 10q-2 -42 -6 -114t-6 -128t-2 -127v-88q0 -121 6 -184q4 -62 24 -84t76 -33v-43q-60 -28 -100.5 -55.5t-91.5 -71.5l-43 10l-7 189l-2 2q-38 -88 -112.5 -144.5t-163.5 -56.5q-158 0 -232 121q-40 70 -40 186v224q0 118 -7 192q-6 63 -27 95t-71 55zM821 1264
v110h553v-110h-553z" />
    <glyph glyph-name="longsgbreve" unicode="&#x17f;&#x11f;" horiz-adv-x="1507" 
d="M88 856q25 8 44 22.5t29.5 30t19.5 43.5t13 47.5t10.5 56.5t10.5 58q41 205 127 311.5t211 106.5q70 0 121 -41t51 -102q0 -38 -23 -63.5t-57 -25.5q-57 0 -84 70q-22 55 -72 55q-66 0 -109.5 -90.5t-43.5 -294.5v-657q0 -108 4 -190q3 -64 26.5 -94.5t88.5 -53.5l-6 -47
q-72 6 -185 6q-92 0 -164 -6l-6 47q54 22 70.5 51.5t21.5 96.5q7 73 7 198v303q0 58 -16.5 81.5t-80.5 37.5zM621 -322q0 73 38 133t125 119q-68 24 -107.5 74.5t-39.5 120.5q0 134 141 242q-69 92 -69 217q0 144 98.5 244t234.5 100q60 0 134.5 -20.5t132.5 -20.5
q98 0 194 8l17 -35l-17 -76h-192q67 -75 67 -200q0 -149 -95 -246.5t-232 -97.5q-130 0 -220 75q-77 -60 -77 -143q0 -45 35.5 -72t103.5 -30l248 -9q144 -4 219.5 -80.5t75.5 -197.5q0 -143 -129.5 -244.5t-337.5 -101.5q-168 0 -258 66.5t-90 174.5zM754 -287
q0 -71 62 -116.5t185 -45.5q164 0 243 57.5t79 139.5q0 74 -54 116t-165 42q-166 0 -250 6q-100 -94 -100 -199zM797 1516l49 4q35 -160 84 -230.5t125 -70.5t125 70.5t84 230.5l49 -4q-6 -222 -76.5 -331.5t-181.5 -109.5t-181.5 109.5t-76.5 331.5zM866 596
q0 -133 49 -203.5t136 -70.5q172 0 172 251q0 127 -50 200t-135 73q-78 0 -125 -63t-47 -187z" />
    <glyph glyph-name="longsebreve" unicode="&#x17f;&#x115;" horiz-adv-x="1527" 
d="M88 856q25 8 44 22.5t29.5 30t19.5 43.5t13 47.5t10.5 56.5t10.5 58q41 205 127 311.5t211 106.5q70 0 121 -41t51 -102q0 -38 -23 -63.5t-57 -25.5q-57 0 -84 70q-22 55 -72 55q-66 0 -109.5 -90.5t-43.5 -294.5v-657q0 -108 4 -190q3 -64 26.5 -94.5t88.5 -53.5l-6 -47
q-72 6 -185 6q-92 0 -164 -6l-6 47q54 22 70.5 51.5t21.5 96.5q7 73 7 198v303q0 58 -16.5 81.5t-80.5 37.5zM645 434q0 213 129 356.5t320 143.5q148 0 247 -97.5t99 -244.5q0 -31 -4 -47h-631q-4 -25 -4 -78q0 -156 83 -255t208 -99q98 0 164.5 37.5t129.5 128.5l50 -31
q-49 -125 -142.5 -203t-222.5 -78q-124 0 -222.5 64.5t-151 171t-52.5 231.5zM813 1516l49 4q35 -160 84 -230.5t125 -70.5t125 70.5t84 230.5l49 -4q-6 -222 -76.5 -331.5t-181.5 -109.5t-181.5 109.5t-76.5 331.5zM819 627h441q-1 101 -61 158t-150 57t-150 -60t-80 -155z
" />
    <glyph glyph-name="longshcircumflex" unicode="&#x17f;&#x125;" horiz-adv-x="1636" 
d="M88 856q30 9 49.5 26t30 44.5t16 52t12.5 66.5t13 69q45 197 149 307.5t273 110.5q102 0 164 -47q35 24 73 55l43 -16q-10 -174 -10 -371v-403l2 -2q42 81 114 133.5t159 52.5q75 0 135.5 -33.5t97.5 -93.5q43 -72 43 -180v-236q0 -137 4 -198q5 -67 22 -96.5t72 -51.5
l-6 -47q-108 6 -164 6q-55 0 -163 -6l-7 47q55 22 72.5 52t22.5 96q4 61 4 198v217q0 87 -49 140t-130 53q-104 0 -166.5 -64t-62.5 -164v-182q0 -137 4 -198q5 -67 22 -96.5t72 -51.5l-6 -47q-108 6 -164 6q-55 0 -163 -6l-7 47q55 22 72.5 52t22.5 96q4 61 4 198v653
q0 130 -4 191q-12 190 -189 190q-103 0 -166 -90t-63 -295v-657q0 -108 4 -190q3 -64 26.5 -94.5t88.5 -53.5l-6 -47q-72 6 -185 6q-92 0 -164 -6l-6 47q54 22 70.5 51.5t21.5 96.5q7 73 7 198v303q0 58 -16.5 81.5t-80.5 37.5zM498 1620l247 207q46 37 80 37q31 0 80 -39
l248 -205l-29 -43l-299 121l-299 -121z" />
    <glyph glyph-name="longshbar" unicode="&#x17f;&#x127;" horiz-adv-x="1636" 
d="M88 856q30 9 49.5 26t30 44.5t16 52t12.5 66.5t13 69q45 197 149 307.5t273 110.5q102 0 164 -47q35 24 73 55l43 -16q-10 -161 -10 -340h344v-99h-346v-335l2 -2q42 81 115 133.5t160 52.5q75 0 135.5 -33.5t97.5 -93.5q43 -72 43 -180v-236q0 -137 4 -198
q5 -67 22 -96.5t72 -51.5l-6 -47q-108 6 -164 6q-55 0 -163 -6l-7 47q55 22 72.5 52t22.5 96q4 61 4 198v217q0 87 -49 140t-130 53q-104 0 -166.5 -64t-62.5 -164v-182q0 -137 4 -198q5 -67 22 -96.5t72 -51.5l-6 -47q-108 6 -164 6q-55 0 -163 -6l-7 47q55 22 72.5 52
t22.5 96q4 61 4 198v694h-107v99h105q0 35 -2 51q-12 190 -189 190q-103 0 -166 -90t-63 -295v-657q0 -108 4 -190q3 -64 26.5 -94.5t88.5 -53.5l-6 -47q-72 6 -185 6q-92 0 -164 -6l-6 47q54 22 70.5 51.5t21.5 96.5q7 73 7 198v303q0 58 -16.5 81.5t-80.5 37.5z" />
    <glyph glyph-name="longsitilde" unicode="&#x17f;&#x129;" horiz-adv-x="1202" 
d="M88 856q25 8 44 22.5t29.5 30t19.5 43.5t13 47.5t10.5 56.5t10.5 58q41 205 127 311.5t211 106.5q70 0 121 -41t51 -102q0 -38 -23 -63.5t-57 -25.5q-57 0 -84 70q-22 55 -72 55q-66 0 -109.5 -90.5t-43.5 -294.5v-657q0 -108 4 -190q3 -64 26.5 -94.5t88.5 -53.5l-6 -47
q-72 6 -185 6q-92 0 -164 -6l-6 47q54 22 70.5 51.5t21.5 96.5q7 73 7 198v303q0 58 -16.5 81.5t-80.5 37.5zM641 1157q89 139 203 139q56 0 123 -30q7 -3 24.5 -11t22.5 -10.5t17.5 -7t19.5 -6t17.5 -3t21.5 -1.5q64 0 129 51l34 -37q-89 -139 -200 -139q-53 0 -123 31
q-5 2 -19 8.5t-17.5 8l-14 6t-15 6t-13 4t-14.5 3t-14 1.5t-16 1q-64 0 -129 -51zM762 752v43q70 32 116.5 62.5t100.5 80.5l43 -16q-10 -174 -10 -371v-154q0 -82 4 -204q2 -65 20 -95t74 -53l-6 -47q-108 6 -164 6t-164 -6l-6 47q55 22 72 51.5t22 96.5q4 61 4 204v45
q0 132 -4 193q-4 62 -24.5 84t-77.5 33z" />
    <glyph glyph-name="longsibreve" unicode="&#x17f;&#x12d;" horiz-adv-x="1091" 
d="M88 856q25 8 44 22.5t29.5 30t19.5 43.5t13 47.5t10.5 56.5t10.5 58q41 202 133 310t219 108q71 0 128 -41.5t57 -101.5q0 -29 -14.5 -52t-37.5 -32q54 -86 138 -86q76 0 125 70.5t84 230.5l49 -4q-6 -222 -76.5 -331.5t-181.5 -109.5q-180 0 -244 268q-9 38 -32.5 60
t-57.5 22q-73 0 -120.5 -90.5t-47.5 -294.5v-657q0 -108 4 -190q3 -64 26.5 -94.5t88.5 -53.5l-6 -47q-72 6 -185 6q-92 0 -164 -6l-6 47q54 22 70.5 51.5t21.5 96.5q7 73 7 198v303q0 58 -16.5 81.5t-80.5 37.5zM651 752v43q70 32 116.5 62.5t100.5 80.5l43 -16
q-10 -174 -10 -371v-154q0 -143 4 -204q5 -67 22 -96.5t72 -51.5l-6 -47q-108 6 -164 6q-55 0 -163 -6l-7 47q55 22 72.5 52t22.5 96q4 61 4 204v45q0 132 -4 193t-25 83.5t-78 33.5z" />
    <glyph glyph-name="longsij" unicode="&#x17f;&#x133;" horiz-adv-x="1599" 
d="M88 856q30 9 49.5 26t30 44.5t16 52t12.5 66.5t13 69q101 418 422 418q113 0 188.5 -51t75.5 -127q0 -41 -24.5 -67.5t-67.5 -26.5q-74 0 -121 86q-42 79 -117 79q-227 0 -227 -385v-649q0 -76 4 -198q2 -64 25 -94.5t88 -53.5l-6 -47q-108 6 -185 6q-56 0 -164 -6l-6 47
q55 22 72 51.5t22 96.5q5 76 5 198v303q0 58 -16.5 81.5t-80.5 37.5zM651 752v43q70 32 116.5 62.5t100.5 80.5l43 -16q-10 -174 -10 -371v-154q0 -143 4 -204q5 -67 22 -96.5t72 -51.5l-6 -47q-108 6 -164 6q-55 0 -163 -6l-7 47q55 22 72.5 52t22.5 96q4 61 4 204v45
q0 132 -4 193t-25 83.5t-78 33.5zM1155 -504q73 95 100 189.5t27 251.5v505q0 130 -6 193q-4 62 -24 84t-76 33v43q72 35 118 65t99 78l43 -16q-11 -191 -11 -371v-518q0 -142 2 -205q-12 -114 -76 -210.5t-161 -158.5zM1239 1389q0 49 32.5 81.5t82.5 32.5t82 -32.5
t32 -81.5q0 -50 -32.5 -82.5t-81.5 -32.5q-50 0 -82.5 33t-32.5 82z" />
    <glyph glyph-name="longsjcircumflex" unicode="&#x17f;&#x135;" horiz-adv-x="1138" 
d="M88 856q25 8 44 22.5t29.5 30t19.5 43.5t13 47.5t10.5 56.5t10.5 58q41 205 127 311.5t211 106.5q70 0 121 -41t51 -102q0 -38 -23 -63.5t-57 -25.5q-57 0 -84 70q-22 55 -72 55q-66 0 -109.5 -90.5t-43.5 -294.5v-657q0 -108 4 -190q3 -64 26.5 -94.5t88.5 -53.5l-6 -47
q-72 6 -185 6q-92 0 -164 -6l-6 47q54 22 70.5 51.5t21.5 96.5q7 73 7 198v303q0 58 -16.5 81.5t-80.5 37.5zM637 1061l199 420q20 49 59 49t59 -49l199 -420l-43 -27l-215 275l-215 -275zM694 -504q73 95 100 189.5t27 251.5v505q0 130 -6 193q-4 62 -24 84t-76 33v43
q72 35 118 65t99 78l43 -16q-10 -174 -10 -371v-518q0 -142 2 -205q-12 -113 -76.5 -210t-161.5 -159z" />
    <glyph glyph-name="longsldot" unicode="&#x17f;&#x140;" horiz-adv-x="1323" 
d="M88 856q30 9 49.5 26t30 44.5t16 52t12.5 66.5t13 69q45 197 149 307.5t273 110.5q102 0 164 -47q35 24 73 55l43 -16q-10 -174 -10 -371v-756q0 -143 4 -204q0 -64 19 -94.5t75 -53.5l-6 -47q-108 6 -164 6q-55 0 -163 -6l-7 47q55 22 72.5 52t22.5 96q4 61 4 204v647
q0 130 -4 191q-12 190 -189 190q-49 0 -88 -19.5t-71 -62.5t-50 -120t-18 -183v-649q0 -76 4 -198q2 -64 25 -94.5t88 -53.5l-6 -47q-108 6 -185 6q-56 0 -164 -6l-6 47q55 22 72 51.5t22 96.5q5 76 5 198v303q0 58 -16.5 81.5t-80.5 37.5zM1094 479q0 50 32.5 82.5
t81.5 32.5q50 0 82.5 -33t32.5 -82t-32.5 -81.5t-82.5 -32.5t-82 32.5t-32 81.5z" />
    <glyph glyph-name="longsobreve" unicode="&#x17f;&#x14f;" horiz-adv-x="1636" 
d="M88 856q25 8 44 22.5t29.5 30t19.5 43.5t13 47.5t10.5 56.5t10.5 58q41 205 127 311.5t211 106.5q70 0 121 -41t51 -102q0 -38 -23 -63.5t-57 -25.5q-57 0 -84 70q-22 55 -72 55q-66 0 -109.5 -90.5t-43.5 -294.5v-657q0 -108 4 -190q3 -64 26.5 -94.5t88.5 -53.5l-6 -47
q-72 6 -185 6q-92 0 -164 -6l-6 47q54 22 70.5 51.5t21.5 96.5q7 73 7 198v303q0 58 -16.5 81.5t-80.5 37.5zM645 451q0 199 133.5 341t321.5 142q129 0 233.5 -63.5t163.5 -174.5t59 -245q0 -132 -59.5 -243.5t-162 -176t-224.5 -64.5q-200 0 -332.5 139.5t-132.5 344.5z
M813 469q0 -189 83 -296t220 -107q122 0 197.5 98t75.5 274q0 180 -83.5 291t-211.5 111q-122 0 -201.5 -97.5t-79.5 -273.5zM840 1516l49 4q35 -160 84 -230.5t125 -70.5t125 70.5t84 230.5l49 -4q-6 -222 -76.5 -331.5t-181.5 -109.5t-181.5 109.5t-76.5 331.5z" />
    <glyph glyph-name="longsubreve" unicode="&#x17f;&#x16d;" horiz-adv-x="1634" 
d="M88 856q25 8 44 22.5t29.5 30t19.5 43.5t13 47.5t10.5 56.5t10.5 58q41 205 127 311.5t211 106.5q70 0 121 -41t51 -102q0 -38 -23 -63.5t-57 -25.5q-57 0 -84 70q-22 55 -72 55q-66 0 -109.5 -90.5t-43.5 -294.5v-657q0 -108 4 -190q3 -64 26.5 -94.5t88.5 -53.5l-6 -47
q-72 6 -185 6q-92 0 -164 -6l-6 47q54 22 70.5 51.5t21.5 96.5q7 73 7 198v303q0 58 -16.5 81.5t-80.5 37.5zM643 840l6 45q164 4 256 10q-2 -42 -6 -114t-6 -128t-2 -127v-233q0 -95 43.5 -144t118.5 -49q109 0 173 70t64 184v144q0 129 -6 192q-4 62 -26 94t-72 56l6 45
q164 4 256 10q-2 -42 -6 -114t-6 -128t-2 -127v-88q0 -121 6 -184q4 -62 24 -84t76 -33v-43q-60 -28 -100.5 -55.5t-91.5 -71.5l-43 10l-7 189l-2 2q-38 -88 -112.5 -144.5t-163.5 -56.5q-158 0 -232 121q-40 70 -40 186v224q0 118 -7 192q-6 63 -27 95t-71 55zM829 1516
l50 4q35 -161 83.5 -231t124.5 -70t125 70.5t84 230.5l50 -4q-6 -222 -77 -331.5t-182 -109.5t-181.5 109.5t-76.5 331.5z" />
    <glyph glyph-name="longsccaron" unicode="&#x17f;&#x10d;" horiz-adv-x="1484" 
d="M88 856q25 8 44 22.5t29.5 30t19.5 43.5t13 47.5t10.5 56.5t10.5 58q41 205 127 311.5t211 106.5q70 0 121 -41t51 -102q0 -38 -23 -63.5t-57 -25.5q-57 0 -84 70q-22 55 -72 55q-66 0 -109.5 -90.5t-43.5 -294.5v-657q0 -108 4 -190q3 -64 26.5 -94.5t88.5 -53.5l-6 -47
q-72 6 -185 6q-92 0 -164 -6l-6 47q54 22 70.5 51.5t21.5 96.5q7 73 7 198v303q0 58 -16.5 81.5t-80.5 37.5zM645 434q0 140 61 255t165.5 180t230.5 65q137 0 231 -84q74 -65 74 -152q0 -39 -23 -64.5t-63 -25.5q-75 0 -90 86q-26 148 -162 148q-120 0 -193 -100t-73 -275
q0 -157 80 -255.5t200 -98.5q98 0 163 37.5t128 128.5l49 -31q-49 -127 -140 -204t-220 -77q-123 0 -220 65t-147.5 170.5t-50.5 231.5zM825 1503l43 27l215 -275l215 275l43 -27l-198 -420q-20 -49 -60 -49q-39 0 -59 49z" />
    <glyph glyph-name="fi.trk" unicode="fi" horiz-adv-x="1169" 
d="M88 856q25 8 44 22.5t29.5 30t19.5 43.5t13 47.5t10.5 56.5t10.5 58q41 205 127 311.5t211 106.5q70 0 121 -41t51 -102q0 -38 -23 -63.5t-57 -25.5q-57 0 -84 70q-22 55 -72 55q-66 0 -109.5 -90.5t-43.5 -294.5v-153q135 3 223 8l16 -35l-16 -76h-223v-401
q0 -108 4 -190q3 -64 26.5 -94.5t88.5 -53.5l-6 -47q-72 6 -185 6q-92 0 -164 -6l-6 47q54 22 70.5 51.5t21.5 96.5q7 73 7 198v303q0 58 -16.5 81.5t-80.5 37.5zM729 752v43q72 35 118 65t99 78l43 -16q-1 -46 -4 -116t-4.5 -127.5t-1.5 -127.5v-154q0 -141 4 -204
q5 -67 22 -96.5t72 -51.5l-6 -47q-72 6 -164 6t-164 -6l-6 47q55 22 71 50t21 95q7 73 7 207v45q0 120 -7 193q-4 62 -24 84t-76 33zM793 1389q0 49 32.5 81.5t81.5 32.5q50 0 82.5 -32.5t32.5 -81.5t-33 -82t-82 -33t-81.5 32.5t-32.5 82.5z" />
    <glyph glyph-name="ffi.trk" unicode="&#xfb00;i" horiz-adv-x="1726" 
d="M88 856q25 8 43.5 22.5t29 30.5t18.5 43t12 47.5t9.5 56.5t10.5 58q39 191 137.5 304.5t237.5 113.5q86 0 137 -39t51 -94q0 -35 -20.5 -56.5t-51.5 -21.5q-29 0 -48.5 13t-41.5 42q-23 28 -41 38.5t-49 10.5q-186 0 -186 -385v-153h291q22 0 39 4t29 8.5t22 18t15.5 23
t11.5 33t9 37.5t9 48.5t10 54.5q40 204 126 311t212 107q70 0 121 -41t51 -102q0 -38 -23 -63.5t-57 -25.5q-57 0 -84 70q-22 55 -71 55q-31 0 -57.5 -19.5t-48.5 -62t-35 -120t-13 -183.5v-153q135 3 223 8l17 -35l-17 -76h-223v-401q0 -108 4 -190q3 -64 26.5 -94.5
t88.5 -53.5l-6 -47q-72 6 -185 6q-92 0 -164 -6l-6 47q54 22 70.5 51.5t21.5 96.5q7 74 7 198v219q0 51 -2.5 78.5t-8.5 49.5t-21 30.5t-34.5 12t-54.5 3.5h-293v-401q0 -108 4 -190q3 -64 26.5 -94.5t88.5 -53.5l-6 -47q-72 6 -185 6q-92 0 -164 -6l-6 47q54 22 70.5 51.5
t21.5 96.5q7 73 7 198v303q0 58 -16.5 81.5t-80.5 37.5zM1286 752v43q72 35 118 65t99 78l43 -16q-1 -46 -4 -116t-4.5 -127.5t-1.5 -127.5v-154q0 -141 4 -204q5 -67 22 -96.5t72 -51.5l-6 -47q-72 6 -164 6t-164 -6l-6 47q55 22 71 50t21 95q7 73 7 207v45q0 120 -7 193
q-4 62 -24 84t-76 33zM1350 1389q0 49 32 81.5t82 32.5t82.5 -32.5t32.5 -81.5t-32.5 -82t-82.5 -33q-49 0 -81.5 32.5t-32.5 82.5z" />
    <glyph glyph-name="faringacute" unicode="f&#x1fb;" horiz-adv-x="1394" 
d="M88 856q25 8 44 22.5t29.5 30t19.5 43.5t13 47.5t10.5 56.5t10.5 58q41 205 127 311.5t211 106.5q70 0 121 -41t51 -102q0 -38 -23 -63.5t-57 -25.5q-57 0 -84 70q-22 55 -72 55q-66 0 -109.5 -90.5t-43.5 -294.5v-153q135 3 223 8l16 -35l-16 -76h-223v-401
q0 -108 4 -190q3 -64 26.5 -94.5t88.5 -53.5l-6 -47q-72 6 -185 6q-92 0 -164 -6l-6 47q54 22 70.5 51.5t21.5 96.5q7 73 7 198v303q0 58 -16.5 81.5t-80.5 37.5zM641 166q0 68 32.5 116t96.5 89q112 72 315 125v100q0 91 -43 147q-44 58 -129 58q-50 0 -95.5 -20
t-100.5 -64l-39 65q32 59 104.5 103.5t157.5 44.5q154 0 227 -107q27 -38 44.5 -97t17.5 -124v-196q0 -124 4 -187q6 -104 102 -149l-26 -82q-100 4 -149.5 44.5t-63.5 114.5h-4q-39 -90 -102 -133t-136 -43q-96 0 -154.5 55.5t-58.5 139.5zM731 1559l342 208q51 31 88 31
t59.5 -23.5t22.5 -60.5q0 -39 -26.5 -61t-86.5 -37l-380 -107zM780 1255q0 88 61.5 150.5t149.5 62.5t150.5 -62.5t62.5 -150.5t-62.5 -149.5t-150.5 -61.5t-149.5 61.5t-61.5 149.5zM786 201q0 -45 26 -75t77 -30q71 0 133.5 58.5t62.5 156.5v113q-17 -5 -118 -47
q-181 -77 -181 -176zM868 1253q0 -53 34.5 -89t86.5 -36q54 0 89.5 36t35.5 89q0 54 -35.5 91.5t-89.5 37.5q-52 0 -86.5 -37.5t-34.5 -91.5z" />
    <glyph glyph-name="ffaringacute" unicode="ff&#x1fb;" horiz-adv-x="1949" 
d="M88 856q25 8 43.5 22.5t29 30.5t18.5 43t12 47.5t9.5 56.5t10.5 58q39 191 137.5 304.5t237.5 113.5q86 0 137 -39t51 -94q0 -35 -20.5 -56.5t-51.5 -21.5q-29 0 -48.5 13t-41.5 42q-23 28 -41 38.5t-49 10.5q-186 0 -186 -385v-153h291q22 0 39 4t29 8.5t22 18t15.5 23
t11.5 33t9 37.5t9 48.5t10 54.5q40 204 126 311t212 107q70 0 121 -41t51 -102q0 -38 -23 -63.5t-57 -25.5q-57 0 -84 70q-22 55 -71 55q-31 0 -57.5 -19.5t-48.5 -62t-35 -120t-13 -183.5v-153q135 3 223 8l17 -35l-17 -76h-223v-401q0 -108 4 -190q3 -64 26.5 -94.5
t88.5 -53.5l-6 -47q-72 6 -185 6q-92 0 -164 -6l-6 47q54 22 70.5 51.5t21.5 96.5q7 74 7 198v219q0 51 -2.5 78.5t-8.5 49.5t-21 30.5t-34.5 12t-54.5 3.5h-293v-401q0 -108 4 -190q3 -64 26.5 -94.5t88.5 -53.5l-6 -47q-72 6 -185 6q-92 0 -164 -6l-6 47q54 22 70.5 51.5
t21.5 96.5q7 73 7 198v303q0 58 -16.5 81.5t-80.5 37.5zM1196 166q0 68 32.5 116t96.5 89q112 72 315 125v100q0 91 -43 147q-44 58 -129 58q-50 0 -95.5 -20t-100.5 -64l-39 65q32 59 104.5 103.5t157.5 44.5q154 0 227 -107q27 -38 44.5 -97t17.5 -124v-196q0 -124 4 -187
q6 -104 102 -149l-26 -82q-100 4 -149.5 44.5t-63.5 114.5h-4q-39 -90 -102 -133t-136 -43q-96 0 -154.5 55.5t-58.5 139.5zM1286 1559l342 208q51 31 88 31t59.5 -23.5t22.5 -60.5q0 -39 -26 -61t-86 -37l-381 -107zM1335 1255q0 88 61.5 150.5t149.5 62.5t150.5 -62.5
t62.5 -150.5t-62.5 -149.5t-150.5 -61.5t-149.5 61.5t-61.5 149.5zM1341 201q0 -45 26 -75t77 -30q71 0 133.5 58.5t62.5 156.5v113q-17 -5 -118 -47q-181 -77 -181 -176zM1423 1253q0 -53 34.5 -89t86.5 -36q54 0 89.5 36t35.5 89q0 54 -35.5 91.5t-89.5 37.5
q-52 0 -86.5 -37.5t-34.5 -91.5z" />
    <glyph glyph-name="longsaringacute" unicode="&#x17f;&#x1fb;" horiz-adv-x="1380" 
d="M88 856q25 8 44 22.5t29.5 30t19.5 43.5t13 47.5t10.5 56.5t10.5 58q41 205 127 311.5t211 106.5q70 0 121 -41t51 -102q0 -38 -23 -63.5t-57 -25.5q-57 0 -84 70q-22 55 -72 55q-66 0 -109.5 -90.5t-43.5 -294.5v-657q0 -108 4 -190q3 -64 26.5 -94.5t88.5 -53.5l-6 -47
q-72 6 -185 6q-92 0 -164 -6l-6 47q54 22 70.5 51.5t21.5 96.5q7 73 7 198v303q0 58 -16.5 81.5t-80.5 37.5zM627 166q0 68 32.5 116t96.5 89q112 72 315 125v100q0 91 -43 147q-44 58 -129 58q-90 0 -197 -84l-38 65q32 59 104.5 103.5t157.5 44.5q154 0 227 -107
q61 -87 61 -221v-196q0 -108 5 -187q6 -104 102 -149l-27 -82q-100 4 -149.5 44.5t-63.5 114.5h-4q-39 -90 -101.5 -133t-135.5 -43q-96 0 -154.5 55.5t-58.5 139.5zM717 1559l342 208q51 31 88 31t59.5 -23.5t22.5 -60.5q0 -39 -26.5 -61t-86.5 -37l-381 -107zM766 1255
q0 88 61.5 150.5t149.5 62.5t150.5 -62.5t62.5 -150.5t-62.5 -149.5t-150.5 -61.5t-149.5 61.5t-61.5 149.5zM772 201q0 -45 25.5 -75t76.5 -30q71 0 134 58.5t63 156.5v113q-21 -7 -119 -47q-180 -76 -180 -176zM854 1253q0 -53 34.5 -89t86.5 -36q54 0 89.5 36t35.5 89
q0 54 -35.5 91.5t-89.5 37.5q-52 0 -86.5 -37.5t-34.5 -91.5z" />
    <glyph glyph-name=".notdef" horiz-adv-x="1206" 
d="M20 393v672l582 336l584 -336v-672l-584 -336zM131 782q0 -42 31.5 -71t68.5 -29q27 0 48 12l8 6l-41 -143l14 -27l182 105l-16 31l-139 -82l41 141q10 33 10 61q0 44 -29.5 72.5t-68.5 28.5q-45 0 -77 -32t-32 -73zM166 782q0 28 21 50t51 22q38 0 59 -35q8 -13 8 -33
q0 -28 -21 -49.5t-51 -21.5q-26 0 -46.5 19t-20.5 48zM463 778q0 -70 55 -142.5t117 -72.5q24 0 51 15q51 32 51 94q0 70 -54.5 142.5t-115.5 72.5q-48 0 -76 -33.5t-28 -75.5zM471 1133h47v-138h17v138h49v16h-113v-16zM498 780q0 45 34 64q13 8 33 8q26 0 53 -21l-59 -188
q-27 27 -44 66.5t-17 70.5zM518 350q0 -35 23.5 -59.5t58.5 -24.5q34 0 58 24.5t24 59.5q0 34 -24 58t-58 24q-35 0 -58.5 -24t-23.5 -58zM537 350q0 27 18 45.5t45 18.5q26 0 44 -19t18 -45q0 -28 -18 -46.5t-44 -18.5q-28 0 -45.5 18.5t-17.5 46.5zM571 313h17v25h14
l16 -25h17l-19 27q17 7 17 25q0 11 -7.5 17.5t-19.5 6.5h-35v-76zM586 618l57 189q26 -32 42.5 -70.5t16.5 -66.5q0 -29 -18 -50.5t-47 -21.5q-28 0 -51 20zM588 350v27h14q16 0 16 -12q0 -15 -16 -15h-14zM631 995h16v70h74v16h-74v52h80v16h-96v-154zM764 819l96 -168
l29 17q0 2 -1 5t-1 5q0 25 21 47.5t55 22.5q29 0 51 -21t22 -53t-26.5 -57t-61.5 -25q-23 0 -41 12l-10 -35q23 -10 51 -10q35 0 62 16q61 35 61 97q0 50 -33 80t-71 30q-36 0 -64.5 -20.5t-38.5 -48.5l-53 94l129 76l-16 28z" />
    <glyph glyph-name=".null" horiz-adv-x="0" 
 />
    <glyph glyph-name="nonmarkingreturn" horiz-adv-x="682" 
 />
    <glyph glyph-name="NULL" horiz-adv-x="0" 
 />
    <glyph glyph-name="NULL" horiz-adv-x="0" 
 />
    <glyph glyph-name="CR" unicode="&#xd;" horiz-adv-x="512" 
 />
    <glyph glyph-name="space" unicode=" " horiz-adv-x="512" 
 />
    <glyph glyph-name="exclam" unicode="!" horiz-adv-x="512" 
d="M135 96q0 52 34.5 86.5t86.5 34.5t86.5 -34.5t34.5 -86.5t-34.5 -86.5t-86.5 -34.5t-86.5 34.5t-34.5 86.5zM150 1354q0 45 32 78.5t74 33.5t74 -33t32 -79q0 -26 -14 -162q-45 -460 -63 -819h-58q-18 359 -63 819q-14 137 -14 162z" />
    <glyph glyph-name="quotedbl" unicode="&#x22;" horiz-adv-x="880" 
d="M193 1434q0 46 27.5 78t68.5 32q39 0 65.5 -32t26.5 -78q0 -18 -21 -134q-33 -182 -49 -321h-49q-16 139 -49 321q-20 110 -20 134zM500 1434q0 46 27.5 78t68.5 32q39 0 65.5 -32t26.5 -78q0 -24 -20 -134q-36 -196 -50 -321h-49q-16 139 -49 321q-20 110 -20 134z" />
    <glyph glyph-name="numbersign" unicode="#" horiz-adv-x="1024" 
d="M14 471v94h224l84 314h-197v94h221l123 461h100l-123 -461h246l123 461h103l-123 -461h215v-94h-240l-84 -314h213v-94h-237l-125 -471h-103l125 471h-246l-125 -471h-100l125 471h-199zM338 565h246l84 314h-246z" />
    <glyph glyph-name="dollar" unicode="$" 
d="M129 367l64 14q43 -125 71 -170q47 -82 100.5 -117t151.5 -35v600q-129 90 -178.5 132t-91.5 96q-39 51 -56.5 101.5t-17.5 119.5q0 138 95.5 236t248.5 118v199h92v-195q159 -6 310 -84q4 -106 4 -141q0 -39 -4 -145l-58 -4q-30 120 -86 186q-69 82 -166 92v-569
q110 -77 158.5 -116t89.5 -83q45 -50 71.5 -119.5t26.5 -138.5q0 -147 -93.5 -245.5t-252.5 -123.5v-206h-92v198h-10q-194 0 -336 68q-24 133 -41 332zM317 1143q0 -51 15.5 -91.5t56.5 -82.5q46 -49 127 -105v504q-90 -14 -144.5 -74.5t-54.5 -150.5zM608 70q87 23 138 86
t51 149q0 113 -78 191q-45 45 -111 96v-522z" />
    <glyph glyph-name="percent" unicode="%" horiz-adv-x="1607" 
d="M82 1196q0 137 95.5 231.5t232.5 94.5q142 0 236.5 -94.5t94.5 -231.5q0 -136 -95 -232t-230 -96q-146 0 -240 93t-94 235zM188 1196q0 -104 64 -168.5t164 -64.5q91 0 153 66t62 167q0 100 -63 165.5t-158 65.5q-93 0 -157.5 -65.5t-64.5 -165.5zM227 -49l1028 1624
l84 -57l-1028 -1624zM866 295q0 137 95.5 231.5t232.5 94.5q142 0 237 -94.5t95 -231.5q0 -136 -95.5 -232t-230.5 -96q-146 0 -240 93t-94 235zM973 295q0 -104 63.5 -169t163.5 -65q90 0 152.5 66.5t62.5 167.5q0 100 -63 165.5t-158 65.5q-93 0 -157 -65.5t-64 -165.5z
" />
    <glyph glyph-name="ampersand" unicode="&#x26;" horiz-adv-x="1581" 
d="M72 424q0 152 98 277.5t270 183.5q-73 85 -101 149t-28 135q0 122 94 209.5t228 87.5q140 0 229.5 -82t89.5 -206q0 -105 -72.5 -180t-226.5 -124l381 -432l51 82q33 51 62 121.5t29 110.5q0 27 -19.5 42.5t-64.5 32.5l6 56q80 -6 172 -6t151 6l6 -56
q-49 -24 -78.5 -55.5t-74.5 -105.5q-18 -29 -57.5 -98.5t-57.5 -98.5l-63 -102l73 -82q97 -111 150.5 -151t99.5 -40q48 0 101 33l28 -51q-26 -45 -76.5 -77t-105.5 -32q-76 0 -137 44.5t-185 183.5l-32 37q-182 -263 -459 -263q-205 0 -343 131.5t-138 319.5zM233 457
q0 -155 100.5 -250.5t270.5 -95.5q101 0 189 53t153 143l-457 514q-117 -56 -186.5 -148.5t-69.5 -215.5zM461 1202q0 -64 28 -119.5t109 -146.5q207 87 207 244q0 85 -49.5 137.5t-126.5 52.5q-73 0 -120.5 -49.5t-47.5 -118.5z" />
    <glyph glyph-name="quotesingle" unicode="'" horiz-adv-x="512" 
d="M162 1434q0 46 27.5 78t68.5 32q39 0 65.5 -32t26.5 -78q0 -24 -20 -134q-33 -182 -49 -321h-50q-16 139 -49 321q-20 110 -20 134z" />
    <glyph glyph-name="parenleft" unicode="(" horiz-adv-x="819" 
d="M158 541q0 328 136.5 581.5t371.5 413.5l55 -74q-455 -345 -455 -921q0 -574 453 -920l-55 -74q-234 160 -370 413.5t-136 580.5z" />
    <glyph glyph-name="parenright" unicode=")" horiz-adv-x="819" 
d="M98 1462l56 74q235 -160 371.5 -413.5t136.5 -581.5q0 -327 -136 -580.5t-370 -413.5l-56 74q453 346 453 920q0 576 -455 921z" />
    <glyph glyph-name="asterisk" unicode="*" horiz-adv-x="901" 
d="M98 1260q0 25 21 44t51 19q44 0 106 -43q60 -41 152 -84q-7 49 -19 109t-12 61q-14 72 -14 88q0 34 19.5 58t50.5 24q30 0 48.5 -24t18.5 -58q0 -14 -14 -86q-19 -88 -31 -172q99 47 154 84q62 43 104 43q30 0 51 -19t21 -44q0 -26 -16.5 -44t-43.5 -26q-23 -6 -90 -14
q-5 -1 -62 -8t-106 -15q81 -84 125 -123q82 -72 82 -112q0 -27 -16.5 -46.5t-42.5 -19.5q-45 0 -68 39q-15 25 -51 101t-65 132q-26 -51 -61.5 -129.5t-51.5 -103.5q-23 -39 -68 -39q-27 0 -43 17.5t-16 43.5q0 25 19.5 51.5t62.5 65.5q47 41 123 123q-95 17 -170 23
q-80 9 -92 12q-25 8 -40.5 27t-15.5 45z" />
    <glyph glyph-name="plus" unicode="+" 
d="M133 670v92h365v362h92v-362h362v-92h-362v-365h-92v365h-365z" />
    <glyph glyph-name="comma" unicode="," horiz-adv-x="512" 
d="M104 -264q102 37 146.5 83t44.5 105q0 54 -64 80q-92 38 -92 113q0 42 30.5 71t78.5 29q63 0 112.5 -61t49.5 -150q0 -130 -76 -213.5t-215 -109.5z" />
    <glyph glyph-name="hyphen" unicode="-" horiz-adv-x="512" 
d="M0 424v113h512v-113h-512z" />
    <glyph glyph-name="period" unicode="." horiz-adv-x="512" 
d="M135 96q0 52 34.5 86.5t86.5 34.5t86.5 -34.5t34.5 -86.5t-34.5 -86.5t-86.5 -34.5t-86.5 34.5t-34.5 86.5z" />
    <glyph glyph-name="slash" unicode="/" horiz-adv-x="727" 
d="M63 -164l504 1706l97 -31l-504 -1706z" />
    <glyph glyph-name="zero" unicode="0" 
d="M86 717q0 205 56 375t161 272t238 102q140 0 245 -99.5t159 -268.5t54 -381q0 -208 -55 -378t-157.5 -271t-233.5 -101q-143 0 -250 100t-162 269t-55 381zM266 743q0 -332 77.5 -503.5t217.5 -171.5q120 0 189 158t69 466q0 316 -78 494t-206 178q-121 0 -195 -156.5
t-74 -464.5z" />
    <glyph glyph-name="one" unicode="1" 
d="M266 1307q92 35 152.5 64.5t161.5 88.5l43 -16q-11 -191 -11 -371v-653q0 -120 6 -215q5 -76 30 -108t110 -50l-6 -49q-108 6 -213 6q-103 0 -211 -6l-6 49q83 18 108.5 50.5t30.5 107.5q6 94 6 215v569q0 107 -6 201q-3 37 -23 53.5t-61 16.5q-33 0 -98 -11z" />
    <glyph glyph-name="two" unicode="2" 
d="M160 76q321 359 445 568.5t124 404.5q0 122 -59 193t-158 71q-64 0 -117.5 -29t-111.5 -90l-56 63q39 78 125.5 138.5t188.5 60.5q155 0 256 -115q96 -110 96 -292q0 -102 -24 -188t-91 -194t-165 -225.5t-267 -300.5h375q62 0 97.5 19t78.5 71l43 -24q-40 -129 -82 -213
q-82 6 -219 6h-221q-124 0 -242 -8z" />
    <glyph glyph-name="three" unicode="3" 
d="M197 1280q39 72 117.5 124t174.5 52q151 0 228 -86q78 -84 78 -199q0 -95 -57.5 -171t-166.5 -148q128 -23 211.5 -123t83.5 -233q0 -204 -162.5 -347t-449.5 -178l-14 78q239 51 349.5 150t110.5 245q0 126 -86.5 209.5t-234.5 83.5l-12 66q148 84 208 161t60 171
q0 78 -48 128t-120 50q-114 0 -227 -107z" />
    <glyph glyph-name="four" unicode="4" 
d="M8 514q314 496 647 946l123 -26q-6 -123 -6 -306v-528h82q63 0 97.5 17.5t76.5 68.5l43 -24q-43 -131 -82 -209q-82 6 -217 6q0 -100 5.5 -256.5t6.5 -200.5l-120 -25l-41 21v461h-234q-229 0 -364 -6zM188 600h435v647q-21 -30 -75 -106.5t-79 -112t-71 -102.5
t-75.5 -112t-66.5 -103t-68 -111z" />
    <glyph glyph-name="five" unicode="5" 
d="M207 55q225 61 329.5 186.5t104.5 284.5q0 316 -395 387l92 521h315q66 0 203 10l25 -31l-64 -133h-407l-39 -233q208 -42 322 -174t114 -312q0 -233 -160.5 -393t-425.5 -188z" />
    <glyph glyph-name="six" unicode="6" 
d="M98 573q0 322 227.5 577.5t632.5 385.5l35 -72q-719 -330 -719 -886q0 -127 24.5 -225t65.5 -155.5t90.5 -86.5t104.5 -29q118 0 184 89t66 255q0 163 -75.5 258.5t-192.5 95.5q-75 0 -146 -24l-6 69q33 28 88.5 47t120.5 19q146 0 246 -90q133 -120 133 -352
q0 -105 -34.5 -193t-92.5 -146t-133.5 -90t-157.5 -32q-200 0 -330.5 156t-130.5 429z" />
    <glyph glyph-name="seven" unicode="7" 
d="M76 1176q61 187 100 264q82 -6 217 -6h293q168 0 303 6l25 -62q-233 -424 -388 -730.5t-304 -645.5h-152l-23 45q102 197 211.5 389.5t268 460.5t225.5 383h-510q-83 0 -125.5 -27t-97.5 -102z" />
    <glyph glyph-name="eight" unicode="8" 
d="M150 346q0 113 74.5 215.5t205.5 173.5q-219 169 -219 375q0 147 108 249.5t256 102.5q146 0 241 -94.5t95 -224.5q0 -115 -66 -206.5t-188 -152.5q85 -55 142.5 -111t88.5 -112t43.5 -108t12.5 -113q0 -150 -111 -251t-278 -101q-178 0 -291.5 99.5t-113.5 258.5z
M317 348q0 -117 65 -191.5t179 -74.5q107 0 165 68t58 169q0 98 -61 184t-225 189q-181 -138 -181 -344zM356 1145q0 -80 54 -157t180 -159q168 122 168 299q0 104 -55.5 172t-145.5 68q-88 0 -144.5 -63.5t-56.5 -159.5z" />
    <glyph glyph-name="nine" unicode="9" 
d="M92 -23q719 330 719 887q0 250 -80 373t-205 123q-111 0 -181.5 -92.5t-70.5 -263.5q0 -157 75.5 -253t195.5 -96q72 0 145 25l6 -64q-33 -28 -86 -46.5t-112 -18.5q-179 0 -284 124t-105 318q0 104 35.5 192.5t94.5 146t133.5 90t153.5 32.5q208 0 334.5 -155
t126.5 -431q0 -322 -227.5 -577t-632.5 -385z" />
    <glyph glyph-name="colon" unicode=":" horiz-adv-x="512" 
d="M135 96q0 52 34.5 86.5t86.5 34.5t86.5 -34.5t34.5 -86.5t-34.5 -86.5t-86.5 -34.5t-86.5 34.5t-34.5 86.5zM135 780q0 52 34.5 86.5t86.5 34.5t86.5 -34.5t34.5 -86.5t-34.5 -86.5t-86.5 -34.5t-86.5 34.5t-34.5 86.5z" />
    <glyph glyph-name="semicolon" unicode=";" horiz-adv-x="512" 
d="M104 -264q102 37 146.5 83t44.5 105q0 54 -64 80q-92 38 -92 113q0 42 30.5 71t78.5 29q63 0 112.5 -61t49.5 -150q0 -130 -76 -213.5t-215 -109.5zM135 780q0 52 34.5 86.5t86.5 34.5t86.5 -34.5t34.5 -86.5t-34.5 -86.5t-86.5 -34.5t-86.5 34.5t-34.5 86.5z" />
    <glyph glyph-name="less" unicode="&#x3c;" 
d="M133 672v80l819 342v-101l-663 -278l663 -254v-109z" />
    <glyph glyph-name="equal" unicode="=" 
d="M133 516v92h819v-92h-819zM133 823v92h819v-92h-819z" />
    <glyph glyph-name="greater" unicode="&#x3e;" 
d="M133 352v109l664 254l-664 278v101l819 -342v-80z" />
    <glyph glyph-name="question" unicode="?" horiz-adv-x="737" 
d="M98 1354q0 49 38.5 76.5t90.5 27.5q103 0 200.5 -65.5t160.5 -181t63 -246.5q0 -155 -90.5 -232.5t-253.5 -79.5q-16 -196 -18 -280h-53q-18 201 -46 391l27 39q138 0 216 19.5t108 57.5t30 103q0 66 -27 121.5t-68 88.5t-86 51t-85 18q-21 0 -50 -4.5t-40 -4.5
q-52 0 -84.5 26t-32.5 75zM137 96q0 52 34.5 86.5t86.5 34.5t86.5 -34.5t34.5 -86.5t-34.5 -86.5t-86.5 -34.5t-86.5 34.5t-34.5 86.5z" />
    <glyph glyph-name="at" unicode="@" horiz-adv-x="1566" 
d="M102 438q0 208 92 380t255 272t362 100q146 0 269 -53.5t204.5 -143.5t126.5 -208.5t45 -249.5q0 -214 -101 -341.5t-255 -127.5q-85 0 -129 29.5t-68 88.5l-10 2q-71 -143 -195 -143q-82 0 -133 48t-51 120q0 108 104 176q71 48 265 107v57q0 103 -33 147
q-34 47 -102 47q-77 0 -158 -67l-35 61q27 49 85.5 85t129.5 36q135 0 195 -90q47 -70 47 -190v-168q0 -109 6 -162q11 -82 102 -82q94 0 163 94.5t69 272.5q0 150 -66.5 274.5t-191 200t-283.5 75.5q-176 0 -312 -83t-210 -231t-74 -337q0 -287 170 -454.5t455 -167.5
q79 0 154 14.5t111 27.5t87 35l31 -67q-164 -105 -435 -105q-140 0 -265 51t-218.5 142.5t-148 228.5t-54.5 299zM645 240q0 -35 22 -60.5t62 -25.5q56 0 105 49.5t49 130.5v90q-55 -20 -97 -39q-141 -62 -141 -145z" />
    <glyph glyph-name="A" unicode="A" horiz-adv-x="1288" 
d="M4 49q50 26 80.5 62.5t60.5 105.5q37 81 93 229l395 1024h39l379 -1024q61 -161 92 -229q30 -69 60.5 -105.5t80.5 -62.5l-6 -51q-80 6 -168 6q-127 0 -207 -6l-6 51q43 20 60.5 37t17.5 45q0 44 -87 284q-7 20 -11 31l-17 41h-500l-14 -41q-84 -219 -84 -313
q0 -30 17 -48.5t61 -35.5l-6 -51q-80 6 -172 6q-80 0 -152 -6zM395 575h434l-211 580z" />
    <glyph glyph-name="B" unicode="B" horiz-adv-x="1175" 
d="M98 49q59 24 79.5 60t25.5 108q4 68 4 229v545q0 162 -6 230q-5 73 -25 109t-78 59l6 51q80 -6 187 -6q60 0 153.5 5t145.5 5q199 0 314.5 -91t115.5 -251q0 -124 -70.5 -205t-187.5 -119q150 -26 241 -121t91 -245q0 -185 -138 -301.5t-391 -116.5q-14 0 -110.5 5
t-173.5 5q-97 0 -177 -6zM371 434q0 -162 6 -223q8 -77 47 -103t151 -26q172 0 263.5 83t91.5 243q0 156 -90.5 232.5t-270.5 82.5q-55 2 -198 2v-291zM371 809q125 0 198 8q293 22 293 264q0 133 -79 205t-212 72q-108 0 -148.5 -25t-45.5 -84q-6 -63 -6 -211v-229z" />
    <glyph glyph-name="C" unicode="C" horiz-adv-x="1476" 
d="M90 721q0 219 109 391t289.5 263t396.5 91q247 0 452 -102q4 -110 4 -150q0 -39 -4 -153l-61 -4q-30 129 -88 196q-103 119 -301 119q-270 0 -437 -180t-167 -469q0 -122 35 -229t95.5 -185.5t140.5 -135.5t172 -85.5t187 -28.5q124 0 198 44.5t130 144.5q9 16 16.5 32
t15.5 36.5t12.5 33t14 40.5t13.5 40l61 -10q-16 -203 -43 -344q-184 -109 -444 -109q-121 0 -235.5 30t-216.5 92.5t-179 150.5t-121.5 212t-44.5 269z" />
    <glyph glyph-name="D" unicode="D" horiz-adv-x="1527" 
d="M98 49q58 23 78 59t25 109q6 68 6 229v545q0 162 -6 230q-5 73 -25 109t-78 59l6 51q80 -6 187 -6q61 0 174 5t184 5q158 0 298.5 -47t250.5 -136t174 -230.5t64 -317.5q0 -216 -97 -381t-272 -254.5t-403 -89.5q-96 0 -218.5 8t-156.5 8q-105 0 -185 -6zM371 426
q0 -162 6 -223q7 -76 59 -97.5t213 -21.5q285 0 441.5 164t156.5 463q0 147 -47 268.5t-129 202.5t-194.5 125.5t-243.5 44.5q-156 0 -204 -18t-52 -79q-6 -63 -6 -211v-618z" />
    <glyph glyph-name="E" unicode="E" 
d="M98 49q58 23 78 59t25 109q6 68 6 229v545q0 162 -6 230q-5 73 -25 109t-78 59l6 51q80 -6 187 -6h377q147 0 227 6q22 -165 29 -293l-60 -10q-38 106 -80 151q-41 43 -116 55q-70 11 -176 11q-71 0 -90.5 -18t-24.5 -81q-6 -63 -6 -211v-262q157 0 278 11
q67 7 97.5 35.5t54.5 101.5l49 -10q-6 -80 -6 -177q0 -98 6 -178l-49 -10q-24 72 -54 100t-98 37q-83 10 -278 10v-276q0 -100 6 -223q3 -72 31 -95.5t100 -23.5q148 0 217 10q50 7 79.5 26.5t55.5 55.5q36 56 72 158l55 -10q-14 -167 -49 -330q-188 10 -598 10
q-156 0 -236 -6z" />
    <glyph glyph-name="F" unicode="F" horiz-adv-x="989" 
d="M98 49q58 23 78 59t25 109q6 68 6 229v545q0 162 -6 230q-5 73 -25 109t-78 59l6 51q80 -6 187 -6h377q147 0 227 6q22 -165 29 -293l-60 -10q-38 106 -80 151q-41 43 -116 55q-70 11 -176 11q-71 0 -92.5 -18.5t-24.5 -80.5q-4 -68 -4 -221v-252q147 0 241 11
q67 7 97.5 35.5t54.5 101.5l51 -10q-6 -80 -6 -177q0 -98 6 -178l-51 -10q-24 73 -54.5 101.5t-97.5 35.5q-85 10 -241 10v-256q0 -161 4 -229q5 -79 29.5 -111.5t97.5 -52.5l-6 -55q-80 6 -205 6q-107 0 -187 -6z" />
    <glyph glyph-name="G" unicode="G" horiz-adv-x="1515" 
d="M90 721q0 220 108.5 391.5t288.5 262.5t396 91q250 0 452 -84q6 -82 6 -149q0 -40 -4 -154l-61 -4q-28 125 -92 197q-90 100 -299 100q-269 0 -435.5 -180t-166.5 -469q0 -151 53 -278t142.5 -210t205 -128.5t242.5 -45.5q135 0 195.5 43t60.5 140q0 118 -4 186
q-5 72 -33 105.5t-113 62.5l6 51q80 -6 222 -6q100 0 180 6l6 -51q-62 -26 -83.5 -60.5t-23.5 -107.5q-4 -136 -4 -192q0 -77 11 -164q-199 -107 -451 -107q-123 0 -238.5 28t-219 88.5t-180.5 147.5t-122 213t-45 277z" />
    <glyph glyph-name="H" unicode="H" horiz-adv-x="1513" 
d="M98 49q58 23 78 59t25 109q6 68 6 229v545q0 162 -6 230q-5 73 -25 109t-78 59l6 51q80 -6 187 -6q104 0 184 6l6 -51q-63 -26 -84.5 -61t-21.5 -107q0 -33 -2 -113t-2 -117v-188h770v188q0 162 -6 230q-5 73 -25 109t-78 59l6 51q80 -6 187 -6q104 0 184 6l6 -51
q-62 -26 -83 -60.5t-23 -107.5q-4 -136 -4 -230v-545q0 -93 4 -229q2 -73 23 -107.5t83 -60.5l-6 -51q-80 6 -184 6q-107 0 -187 -6l-6 51q58 23 77 58.5t26 109.5q6 68 6 229v265h-770v-265q0 -93 4 -229q2 -73 23 -107.5t83 -60.5l-6 -51q-80 6 -184 6q-107 0 -187 -6z
" />
    <glyph glyph-name="I" unicode="I" horiz-adv-x="579" 
d="M98 49q58 23 78 59t25 109q6 68 6 229v545q0 162 -6 230q-5 73 -25 109t-78 59l6 51q80 -6 187 -6q104 0 184 6l6 -51q-61 -25 -81 -59t-23 -109q-6 -204 -6 -230v-545q0 -25 6 -229q3 -75 23 -109t81 -59l-6 -51q-80 6 -184 6q-107 0 -187 -6z" />
    <glyph glyph-name="J" unicode="J" horiz-adv-x="821" 
d="M27 94l45 51q85 -79 188 -79q130 0 176 110q29 64 29 240v575q0 162 -6 230q-5 73 -25 109t-78 59l6 51q80 -6 187 -6q104 0 184 6l6 -51q-62 -26 -83 -60.5t-23 -107.5q-4 -136 -4 -230v-362q0 -199 2 -291q-6 -180 -95.5 -275.5t-236.5 -95.5q-96 0 -159.5 31
t-112.5 96z" />
    <glyph glyph-name="K" unicode="K" horiz-adv-x="1275" 
d="M98 49q58 24 78 59t25 107q6 68 6 231v545q0 162 -6 230q-5 73 -25 109t-78 59l6 51q80 -6 187 -6q104 0 184 6l6 -51q-62 -26 -83 -60.5t-23 -107.5q-4 -136 -4 -230v-545q0 -93 4 -229q2 -73 23 -107.5t83 -60.5l-6 -51q-80 6 -184 6q-107 0 -187 -6zM420 762l229 231
q69 69 105.5 106.5t79.5 84.5t61 75.5t18 45.5q0 31 -14.5 49t-56.5 35l6 51q80 -6 178 -6q94 0 162 6l6 -51q-71 -47 -190 -166q-29 -29 -114.5 -117t-113.5 -115l-194 -194q266 -371 499 -623q108 -120 191 -147v-43q-40 -17 -105 -17q-126 0 -268 170q-209 243 -479 625z
" />
    <glyph glyph-name="L" unicode="L" horiz-adv-x="1032" 
d="M98 49q58 23 78 59t25 109q6 68 6 229v545q0 162 -6 230q-5 73 -25 109t-78 59l6 51q80 -6 183 -6q106 0 186 6l6 -51q-58 -23 -77.5 -59t-24.5 -109q-6 -68 -6 -230v-565q0 -162 6 -223q7 -73 33.5 -96t97.5 -23q150 0 209 10q52 10 85 33t58 61q39 56 76 166l59 -10
q-12 -154 -51 -350q-203 10 -604 10q-156 0 -236 -6z" />
    <glyph glyph-name="M" unicode="M" horiz-adv-x="1853" 
d="M76 47q61 26 82.5 60t27.5 108q3 39 6.5 123.5t4.5 105.5l24 547q2 47 2 117q0 45 -1 71t-7.5 65.5t-19.5 63.5t-38 47t-61 34l6 51q115 -6 320 -6l516 -1188l485 1188q240 0 320 6l6 -51q-60 -24 -81 -59.5t-26 -108.5q-4 -98 -4 -170q0 -5 0.5 -16.5l2 -46t3 -92
t4 -176t5.5 -276.5q6 -202 8 -229q0 -72 21.5 -107t84.5 -61l-6 -51q-80 6 -182 6q-106 0 -186 -6l-7 51q37 10 60 32t32.5 59t12 65.5t2.5 75.5q0 114 -2 165l-18 813l-547 -1290h-43l-549 1245l-27 -768q-4 -94 -5 -161q0 -50 3 -79t13.5 -64.5t35 -58t64.5 -34.5l-6 -51
q-94 6 -168 6q-99 0 -162 -6z" />
    <glyph glyph-name="N" unicode="N" horiz-adv-x="1572" 
d="M86 1389l6 51q95 -6 240 -6l930 -1117v674q0 151 -7 230q-6 74 -27.5 108t-82.5 60l6 51q94 -6 166 -6q99 0 162 6l6 -51q-61 -25 -82 -59t-27 -109q-6 -68 -6 -230v-672q0 -194 8 -335l-49 -17l-1010 1219v-742q0 -150 7 -229q6 -74 27.5 -108t82.5 -60l-6 -51
q-94 6 -166 6q-99 0 -162 -6l-6 51q61 25 82 59t27 109q6 68 6 229v547q0 149 -6 217q-6 74 -32 114.5t-87 66.5z" />
    <glyph glyph-name="O" unicode="O" horiz-adv-x="1677" 
d="M94 717q0 160 58.5 300.5t158.5 238t236.5 154t288.5 56.5q213 0 384 -98t267 -269t96 -382q0 -159 -58 -299t-156 -238.5t-232 -155.5t-283 -57q-165 0 -306 55t-241 153t-156.5 238t-56.5 304zM287 743q0 -152 48 -280.5t129.5 -214t189 -133t227.5 -47.5
q224 0 367 173.5t143 450.5q0 145 -46.5 271t-125.5 213.5t-186.5 137.5t-227.5 50q-107 0 -201 -41.5t-164.5 -118.5t-111.5 -196t-41 -265z" />
    <glyph glyph-name="P" unicode="P" horiz-adv-x="1062" 
d="M98 49q58 23 78 59t25 109q6 68 6 229v545q0 162 -6 230q-5 73 -25 109t-78 59l6 51q80 -6 187 -6q35 0 123.5 2t154.5 2q192 0 320.5 -106t128.5 -275q0 -182 -130.5 -293t-334.5 -111q-38 0 -84 11l4 63q185 0 279 84.5t94 237.5t-95 231t-259 78q-70 0 -90 -19.5
t-25 -83.5q-6 -63 -6 -211v-598q0 -161 4 -229q5 -75 25 -109t81 -59l-6 -51q-80 6 -184 6q-107 0 -187 -6z" />
    <glyph glyph-name="Q" unicode="Q" horiz-adv-x="1677" 
d="M94 717q0 160 58.5 300.5t158.5 238t236.5 154t288.5 56.5q213 0 384 -98t267 -269t96 -382q0 -265 -151.5 -463.5t-387.5 -261.5q528 -443 1147 -443q266 0 500 78l25 -71q-257 -121 -609 -121q-332 0 -673.5 131t-628.5 403q-208 11 -369 107.5t-251.5 263t-90.5 377.5
zM287 743q0 -152 48 -280.5t129.5 -214t189 -133t227.5 -47.5q224 0 367 173.5t143 450.5q0 145 -46.5 271t-125.5 213.5t-186.5 137.5t-227.5 50q-107 0 -201 -41.5t-164.5 -118.5t-111.5 -196t-41 -265z" />
    <glyph glyph-name="R" unicode="R" horiz-adv-x="1284" 
d="M98 49q58 23 78 59t25 109q6 68 6 229v545q0 162 -6 230q-5 73 -25 109t-78 59l6 51q80 -6 187 -6q37 0 118 2t134 2q201 0 317.5 -106.5t116.5 -258.5q0 -124 -60.5 -215t-171.5 -139q94 -174 170 -295.5t177 -249.5q43 -53 94.5 -94t93.5 -53v-43q-40 -17 -104 -17
q-136 0 -258 170q-90 121 -160.5 244.5t-153.5 300.5q-41 -8 -112 -8q-88 0 -121 8v-236q0 -161 4 -229q5 -75 25 -109t81 -59l-6 -51q-80 6 -184 6q-107 0 -187 -6zM371 758q16 -2 94 -2q167 0 252.5 78.5t85.5 218.5q0 143 -80 224t-231 81q-70 0 -90 -19.5t-25 -83.5
q-6 -63 -6 -211v-286z" />
    <glyph glyph-name="S" unicode="S" horiz-adv-x="995" 
d="M84 367l63 14q42 -121 72 -170q46 -82 101.5 -117t154.5 -35q122 0 197.5 69.5t75.5 176.5q0 113 -78 191q-73 73 -201 163q-132 92 -180.5 133t-89.5 95q-39 50 -55.5 100t-16.5 121q0 154 116 256t294 102q176 0 335 -84q5 -138 5 -141q0 -7 -5 -145l-57 -4
q-30 121 -86 186q-43 49 -90.5 71.5t-118.5 22.5q-109 0 -176.5 -62.5t-67.5 -166.5q0 -51 15.5 -91.5t56.5 -82.5q53 -53 197 -154q134 -94 181 -130.5t87 -82.5q44 -52 70 -121t26 -137q0 -171 -123 -274t-325 -103q-194 0 -336 68q-8 40 -14.5 86t-10 76t-8.5 87.5
t-8 82.5z" />
    <glyph glyph-name="T" unicode="T" horiz-adv-x="1253" 
d="M12 1141q9 146 21 299q80 -6 231 -6h740q151 0 231 6q6 -147 6 -299l-59 -4q-32 107 -74 151q-41 43 -117 55q-70 11 -162 11q-70 0 -89.5 -18t-24.5 -81q-6 -63 -6 -211v-598q0 -25 6 -229q3 -79 27.5 -111.5t97.5 -52.5l-6 -55q-80 6 -205 6q-129 0 -209 -6l-6 55
q73 20 97.5 52.5t27.5 111.5q6 204 6 229v598q0 148 -6 211q-5 63 -24.5 81t-90.5 18q-90 0 -160 -11q-76 -12 -117 -55q-43 -46 -75 -151z" />
    <glyph glyph-name="U" unicode="U" horiz-adv-x="1402" 
d="M68 1389l6 51q80 -6 186 -6q104 0 184 6l7 -51q-62 -26 -82.5 -60.5t-22.5 -107.5q-6 -204 -6 -230v-497q0 -197 98.5 -305.5t272.5 -108.5q189 0 300 121.5t111 345.5v444q0 162 -6 230q-6 74 -27.5 108t-82.5 60l6 51q94 -6 166 -6q98 0 161 6l7 -51q-61 -25 -82 -59
t-27 -109q-6 -68 -6 -230v-471q0 -243 -148 -398t-385 -155q-246 0 -384 137.5t-138 384.5v502q0 162 -6 230q-5 73 -24.5 109t-77.5 59z" />
    <glyph glyph-name="V" unicode="V" horiz-adv-x="1267" 
d="M4 1389l6 51q80 -6 168 -6q127 0 207 6l6 -51q-43 -19 -59.5 -36.5t-16.5 -45.5q0 -33 19.5 -97.5t73.5 -218.5l249 -708l263 708q84 226 84 314q0 30 -17 48.5t-61 35.5l6 51q80 -6 174 -6q83 0 151 6l7 -51q-51 -26 -81.5 -63t-60.5 -105q-29 -63 -92 -230l-385 -1024
h-41l-371 1024q-73 193 -90 230q-30 69 -59.5 105.5t-79.5 62.5z" />
    <glyph glyph-name="W" unicode="W" horiz-adv-x="2041" 
d="M4 1389l6 51q80 -6 168 -6q127 0 207 6l6 -51q-43 -20 -60.5 -37t-17.5 -45q0 -34 19 -99.5t69 -216.5l238 -708l250 708q23 63 34.5 109.5t13 67t1.5 53.5q0 49 -32 94.5t-93 73.5l6 51q80 -6 168 -6q137 0 217 6l6 -51q-44 -20 -63 -40t-19 -53q0 -54 84 -305l238 -708
l250 708q78 225 78 314q0 30 -17 48.5t-61 35.5l6 51q80 -6 174 -6q80 0 152 6l6 -51q-51 -26 -81.5 -63t-60.5 -105q-19 -41 -51.5 -133.5t-34.5 -96.5l-370 -1024h-43l-379 1080l-389 -1080h-43l-359 1024q-5 15 -18 53t-21.5 62.5t-21 57.5t-23.5 57q-32 71 -61 107
t-78 61z" />
    <glyph glyph-name="X" unicode="X" horiz-adv-x="1294" 
d="M33 49q40 24 73 58t93 108q166 218 176 231l203 277l-181 268q-21 31 -75.5 116.5t-73.5 113.5q-40 64 -75 100.5t-81 67.5l6 51q80 -6 168 -6q129 0 209 6l6 -51q-43 -18 -60.5 -36t-17.5 -46q0 -33 42.5 -104t140.5 -212l96 -143l96 145l45 67.5t41 61t33 50t28 45.5
t19 34.5t13.5 31t3.5 22.5q0 31 -14.5 49t-57.5 35l6 51q80 -6 178 -6q84 0 152 6l6 -51q-44 -27 -83 -64.5t-87 -101.5q-31 -42 -96.5 -133t-71.5 -99l-156 -225l215 -320q7 -10 152 -229q41 -64 76.5 -101t81.5 -67l-7 -51q-80 6 -168 6q-128 0 -208 -6l-7 51
q43 18 60.5 36t17.5 46t-35 88.5t-127 192.5l-155 229l-137 -195q-96 -137 -136.5 -208t-40.5 -105q0 -30 16.5 -48.5t59.5 -35.5l-6 -51q-120 6 -199 6q-83 0 -151 -6z" />
    <glyph glyph-name="Y" unicode="Y" horiz-adv-x="1148" 
d="M4 1389l6 51q120 -6 193 -6q106 0 186 6l6 -51q-47 -19 -64.5 -35t-17.5 -39q0 -28 39.5 -100.5t132.5 -223.5l129 -209l121 209q81 139 115.5 210t34.5 104q0 30 -17 48.5t-61 35.5l6 51q80 -6 174 -6q80 0 152 6l6 -51q-44 -25 -77.5 -62t-78.5 -106
q-124 -197 -145 -230l-182 -311v-234q0 -127 6 -229q5 -76 24 -109.5t80 -58.5l-6 -51q-80 6 -184 6q-107 0 -187 -6l-6 51q58 23 77 58.5t26 109.5q6 68 6 229v232l-193 313q-104 172 -141 230q-46 70 -79.5 107t-80.5 61z" />
    <glyph glyph-name="Z" unicode="Z" horiz-adv-x="1255" 
d="M49 41l905 1305q-141 8 -278 8h-154q-106 0 -176 -11q-76 -12 -117 -55t-79 -151l-60 10q7 128 29 293q80 -6 227 -6h545q174 0 266 6l12 -49l-888 -1299q127 -10 262 -10h194q128 0 211 12q50 7 79.5 26.5t55.5 55.5q36 56 72 158l55 -10q-14 -167 -49 -330
q-80 6 -295 6h-538q-175 0 -267 -6z" />
    <glyph glyph-name="bracketleft" unicode="[" horiz-adv-x="819" 
d="M272 -457v1991h394v-98h-291v-1794h291v-99h-394z" />
    <glyph glyph-name="backslash" unicode="\" horiz-adv-x="727" 
d="M63 1511l97 31l504 -1706l-97 -31z" />
    <glyph glyph-name="bracketright" unicode="]" horiz-adv-x="819" 
d="M154 -358h290v1794h-290v98h393v-1991h-393v99z" />
    <glyph glyph-name="asciicircum" unicode="^" 
d="M172 639l320 819h79l342 -819h-100l-278 664l-254 -664h-109z" />
    <glyph glyph-name="underscore" unicode="_" horiz-adv-x="1024" 
d="M0 -117h1024v-92h-1024v92z" />
    <glyph glyph-name="grave" unicode="`" horiz-adv-x="512" 
d="M119 1446q0 36 21.5 60t56.5 24q75 0 102 -109l94 -391l-47 -20l-196 346q-31 53 -31 90z" />
    <glyph glyph-name="a" unicode="a" horiz-adv-x="823" 
d="M70 166q0 68 32.5 116t96.5 89q112 72 315 125v100q0 91 -43 147q-44 58 -129 58q-90 0 -197 -84l-39 65q32 59 105 103.5t158 44.5q154 0 227 -107q61 -87 61 -221v-196q0 -108 5 -187q6 -104 102 -149l-27 -82q-100 4 -149.5 44.5t-63.5 114.5h-4q-39 -90 -101.5 -133
t-135.5 -43q-96 0 -154.5 55.5t-58.5 139.5zM215 201q0 -45 25.5 -75t76.5 -30q71 0 134 58.5t63 156.5v113q-22 -7 -119 -47q-180 -76 -180 -176z" />
    <glyph glyph-name="b" unicode="b" horiz-adv-x="1067" 
d="M76 1352v45q125 65 217 143l43 -16q-10 -174 -10 -371v-412l2 -2q43 89 117 142t167 53q157 0 263 -125.5t106 -319.5q0 -113 -36.5 -211.5t-99 -166t-146.5 -106t-177 -38.5q-95 0 -189.5 22.5t-150.5 59.5v983q0 138 -6 201q-4 62 -24 85t-76 34zM326 281
q0 -220 211 -220q135 0 212.5 102.5t77.5 270.5q0 169 -71 267t-189 98q-117 0 -179 -70.5t-62 -185.5v-262z" />
    <glyph glyph-name="c" unicode="c" horiz-adv-x="913" 
d="M74 434q0 140 60.5 255t165 180t230.5 65q138 0 232 -84q74 -65 74 -152q0 -39 -23 -64.5t-63 -25.5q-76 0 -91 86q-26 148 -161 148q-120 0 -193.5 -100.5t-73.5 -274.5q0 -157 80.5 -255.5t200.5 -98.5q98 0 163 37.5t128 128.5l49 -31q-49 -127 -140 -204t-220 -77
q-123 0 -220 65t-147.5 170.5t-50.5 231.5z" />
    <glyph glyph-name="d" unicode="d" horiz-adv-x="1089" 
d="M86 438q0 109 36 203t95 157.5t136 99.5t159 36q141 0 233 -68v178q0 128 -6 191q-4 62 -24 84t-76 33v45q125 65 217 143l43 -16q-1 -46 -4 -116t-4.5 -127.5t-1.5 -127.5v-715q0 -121 6 -184q4 -62 24 -84t76 -33v-43q-60 -28 -100.5 -55.5t-91.5 -71.5l-43 10l-8 175
l-2 2q-43 -79 -117 -133t-150 -54q-78 0 -149.5 32t-126.5 90t-88 149t-33 200zM236 489q0 -183 81 -287t207 -104q102 0 161.5 65.5t59.5 176.5v213q0 77 -21.5 134.5t-58 90t-79 48.5t-90.5 16q-106 0 -183 -92t-77 -261z" />
    <glyph glyph-name="e" unicode="e" horiz-adv-x="956" 
d="M74 434q0 213 128.5 356.5t319.5 143.5q148 0 247 -97.5t99 -244.5q0 -31 -4 -47h-631q-4 -25 -4 -78q0 -156 83 -255t208 -99q98 0 165 37.5t130 128.5l49 -31q-49 -125 -142 -203t-222 -78q-124 0 -222.5 64.5t-151 171t-52.5 231.5zM248 627h440q-1 101 -61 158
t-150 57t-149.5 -60t-79.5 -155z" />
    <glyph glyph-name="f" unicode="f" horiz-adv-x="571" 
d="M88 856q30 9 49 26t29.5 44.5t15.5 51.5t11.5 66t13.5 70q44 196 139 307t248 111q91 0 155 -46.5t64 -115.5q0 -36 -21.5 -60t-56.5 -24q-59 0 -106 80q-19 31 -41.5 45t-57.5 14q-87 0 -140.5 -90t-53.5 -295v-153q178 4 223 8l16 -35l-16 -76h-223v-401q0 -108 4 -190
q3 -64 26.5 -94.5t88.5 -53.5l-6 -47q-72 6 -185 6q-92 0 -164 -6l-6 47q54 22 70.5 51.5t21.5 96.5q7 73 7 198v303q0 59 -16.5 82.5t-80.5 36.5z" />
    <glyph glyph-name="g" unicode="g" horiz-adv-x="935" 
d="M49 -322q0 73 38.5 133t125.5 119q-68 24 -107.5 74.5t-39.5 120.5q0 134 141 242q-70 94 -70 217q0 143 99 243.5t235 100.5q60 0 134 -20.5t132 -20.5q99 0 195 8l16 -35l-16 -76h-193q68 -76 68 -200q0 -149 -95.5 -246.5t-232.5 -97.5q-129 0 -219 75
q-78 -61 -78 -143q0 -45 36 -72t104 -30l247 -9q144 -4 219.5 -80.5t75.5 -197.5q0 -143 -129.5 -244.5t-337.5 -101.5q-168 0 -258 66.5t-90 174.5zM182 -287q0 -71 62.5 -116.5t185.5 -45.5q164 0 243 57.5t79 139.5q0 74 -54.5 116t-165.5 42q-165 0 -249 6
q-101 -95 -101 -199zM295 596q0 -133 48.5 -203.5t135.5 -70.5q172 0 172 251q0 127 -49.5 200t-134.5 73q-78 0 -125 -63t-47 -187z" />
    <glyph glyph-name="h" unicode="h" horiz-adv-x="1077" 
d="M92 1352v45q125 65 217 143l43 -16q-10 -174 -10 -371l-2 -403l2 -2q44 83 115 134.5t159 51.5q75 0 136 -33.5t98 -93.5q43 -75 43 -180v-236q0 -135 4 -198q5 -67 22 -96.5t72 -51.5l-6 -47q-72 6 -164 6t-164 -6l-6 47q54 22 70.5 51.5t21.5 96.5q7 74 7 198v217
q0 87 -49 140t-130 53q-104 0 -166.5 -64t-62.5 -164v-182q0 -135 4 -198q5 -67 22 -96.5t72 -51.5l-6 -47q-72 6 -164 6t-164 -6l-6 47q54 22 71 51.5t22 96.5q6 63 6 198v653q0 128 -6 191q-4 62 -24 84t-77 33z" />
    <glyph glyph-name="i" unicode="i" horiz-adv-x="536" 
d="M96 752v43q72 35 118 65t99 78l43 -16q-1 -46 -4 -116t-4.5 -127.5t-1.5 -127.5v-154q0 -141 4 -204q5 -67 22 -96.5t72 -51.5l-6 -47q-72 6 -164 6q-91 0 -163 -6l-7 47q55 22 71.5 50.5t21.5 94.5q6 63 6 207v45q0 130 -6 193q-4 62 -24 84t-77 33zM160 1389
q0 49 32 81.5t82 32.5t82.5 -32.5t32.5 -81.5t-32.5 -82t-82.5 -33q-49 0 -81.5 32.5t-32.5 82.5z" />
    <glyph glyph-name="j" unicode="j" horiz-adv-x="507" 
d="M63 -504q73 95 100 189.5t27 251.5v505q0 130 -6 193q-4 62 -24 84t-76 33v43q72 35 118 65t99 78l43 -16q-10 -174 -10 -371v-518q0 -142 2 -205q-12 -113 -76.5 -210t-161.5 -159zM147 1389q0 49 32.5 81.5t82.5 32.5t82.5 -32.5t32.5 -81.5t-32.5 -82t-82.5 -33
t-82.5 33t-32.5 82z" />
    <glyph glyph-name="k" unicode="k" horiz-adv-x="937" 
d="M92 1352v45q125 65 217 143l43 -16q-10 -174 -10 -371v-756q0 -141 4 -204q5 -67 22 -96.5t72 -51.5l-6 -47q-72 6 -164 6t-164 -6l-6 47q54 22 71 51.5t22 96.5q6 63 6 204v647q0 128 -6 191q-4 62 -24 84t-77 33zM369 496l63 57q122 109 161.5 154t39.5 73q0 33 -58 60
l9 47q59 -6 141 -6q63 0 152 6l6 -47q-34 -19 -65.5 -46t-110.5 -100q-31 -28 -99 -91t-92 -85q138 -200 262 -352q49 -57 83 -81.5t81 -45.5v-43q-43 -14 -70 -14q-59 0 -108.5 24t-108.5 92q-34 39 -60.5 71.5t-58.5 78t-45 65t-59.5 89t-62.5 94.5z" />
    <glyph glyph-name="l" unicode="l" horiz-adv-x="532" 
d="M92 1352v45q125 65 217 143l43 -16q-1 -46 -4 -116t-4.5 -127.5t-1.5 -127.5v-756q0 -141 4 -204q5 -67 22 -96.5t72 -51.5l-6 -47q-72 6 -164 6t-164 -6l-6 47q54 22 71 51.5t22 96.5q6 63 6 204v647q0 128 -6 191q-4 62 -24 84t-77 33z" />
    <glyph glyph-name="m" unicode="m" horiz-adv-x="1509" 
d="M96 752v43q72 35 118 65t99 78l43 -16q-14 -152 -14 -156l4 -2q44 78 107 124t139 46q65 0 118.5 -31t86.5 -86q17 -29 26 -63h4q100 180 254 180q65 0 118.5 -31t86.5 -86q39 -64 39 -166v-260q0 -135 4 -198q5 -67 22 -96.5t72 -51.5l-6 -47q-72 6 -164 6
q-91 0 -163 -6l-7 47q54 22 71 51.5t22 96.5q6 63 6 198v236q0 78 -41.5 127t-110.5 49q-89 0 -141.5 -58.5t-52.5 -150.5v-203q0 -135 4 -198q5 -67 22 -96.5t72 -51.5l-6 -47q-72 6 -164 6t-164 -6l-6 47q54 22 70.5 51.5t21.5 96.5q6 63 6 198v236q0 79 -41 127.5
t-110 48.5q-89 0 -142 -58.5t-53 -150.5v-203q0 -135 4 -198q5 -67 22 -96.5t72 -51.5l-6 -47q-72 6 -164 6q-91 0 -163 -6l-7 47q54 22 71 51.5t22 96.5q6 63 6 198v51q0 130 -6 193q-6 62 -25.5 84t-75.5 33z" />
    <glyph glyph-name="n" unicode="n" horiz-adv-x="1081" 
d="M96 752v43q72 35 118 65t99 78l43 -16q-9 -102 -12 -172l2 -2q44 83 115.5 134.5t159.5 51.5q75 0 135.5 -33.5t97.5 -93.5q43 -75 43 -180v-236q0 -135 4 -198q5 -67 22 -96.5t72 -51.5l-6 -47q-72 6 -164 6q-91 0 -163 -6l-7 47q54 22 71 51.5t22 96.5q6 63 6 198v217
q0 87 -49 140t-130 53q-104 0 -166.5 -64t-62.5 -164v-182q0 -135 4 -198q5 -67 22 -96.5t72 -51.5l-6 -47q-72 6 -164 6q-91 0 -163 -6l-7 47q54 22 71 51.5t22 96.5q6 63 6 198v51q0 130 -6 193q-4 62 -24 84t-77 33z" />
    <glyph glyph-name="o" unicode="o" horiz-adv-x="1064" 
d="M74 451q0 130 60.5 241t165 176.5t228.5 65.5q196 0 326.5 -139t130.5 -344q0 -132 -59.5 -243.5t-162 -176t-224.5 -64.5q-200 0 -332.5 139.5t-132.5 344.5zM242 469q0 -189 83 -296t220 -107q122 0 197 98t75 274q0 180 -83.5 291t-211.5 111q-122 0 -201 -97
t-79 -274z" />
    <glyph glyph-name="p" unicode="p" horiz-adv-x="1079" 
d="M82 752v43q72 35 118 65t99 78l43 -16q-9 -102 -12 -172l2 -2q43 81 117 133.5t159 52.5q76 0 145.5 -33.5t123 -93t85 -150t31.5 -198.5q0 -214 -122.5 -353t-292.5 -139q-157 0 -246 74q0 -78 1 -167t2 -149.5t1 -70.5q0 -63 24.5 -94t90.5 -54l-7 -47q-72 6 -184 6
q-92 0 -164 -6l-6 47q54 22 70.5 51.5t21.5 96.5q6 63 6 199v589q0 130 -6 193q-4 62 -24 84t-76 33zM332 332q0 -132 69 -203.5t183 -71.5q116 0 188 86.5t72 251.5q0 191 -80 297.5t-201 106.5q-108 0 -169.5 -62.5t-61.5 -163.5v-241z" />
    <glyph glyph-name="q" unicode="q" horiz-adv-x="1042" 
d="M80 403q0 117 36.5 217t98 168.5t144 107t173.5 38.5q137 0 238 -64q12 10 24.5 22.5t27 28t22.5 23.5l37 -10q-2 -156 -2 -475v-602q0 -140 6 -203q5 -67 21.5 -96.5t70.5 -51.5l-6 -47q-72 6 -164 6q-112 0 -184 -6l-7 47q66 23 90.5 54t24.5 94q0 10 1 70.5t2 149.5
t1 167v113l-2 2q-42 -86 -114.5 -137.5t-157.5 -51.5q-161 0 -271 123.5t-110 312.5zM233 451q0 -167 71 -260t190 -93t180 75.5t61 213.5v166q0 138 -58 210.5t-153 72.5q-129 0 -210 -106t-81 -279z" />
    <glyph glyph-name="r" unicode="r" horiz-adv-x="710" 
d="M96 752v43q72 35 118 65t99 78l43 -16q-7 -81 -12 -199l2 -2q41 100 107 156.5t139 56.5q61 0 96 -30t35 -73q0 -71 -74 -71q-27 0 -65 18.5t-62 18.5q-75 0 -125.5 -83.5t-50.5 -226.5v-96q0 -135 4 -198q5 -66 27.5 -97t87.5 -51l-6 -47q-72 6 -185 6q-91 0 -163 -6
l-7 47q54 22 71 51.5t22 96.5q6 63 6 198v51q0 130 -6 193q-4 62 -24 84t-77 33z" />
    <glyph glyph-name="s" unicode="s" horiz-adv-x="686" 
d="M53 150q0 36 20.5 58.5t55.5 22.5q67 0 88 -79q27 -99 123 -99q67 0 107 34t40 103q0 63 -40 108.5t-140 96.5q-120 60 -172.5 127.5t-52.5 151.5q0 109 79 183.5t189 74.5q60 0 101.5 -13.5t83.5 -46.5q53 -43 53 -100q0 -32 -20 -53t-52 -21q-57 0 -86 70
q-19 40 -43 59t-68 19q-51 0 -84.5 -33t-33.5 -84q0 -60 42 -109t150 -102q119 -58 171 -124.5t52 -164.5q0 -116 -80 -189t-204 -73q-78 0 -126 14.5t-91 51.5q-27 23 -44.5 54.5t-17.5 62.5z" />
    <glyph glyph-name="t" unicode="t" horiz-adv-x="559" 
d="M41 856q72 54 117.5 106.5t95.5 137.5l51 -13q-15 -162 -16 -200q166 4 215 8l16 -35l-16 -76h-219v-481q0 -58 5 -96.5t11 -53t16 -28.5q26 -33 78 -33q56 0 107 51l35 -59q-19 -45 -68 -79t-113 -34q-97 0 -157 72q-56 69 -56 236v415q0 59 -16.5 82.5t-79.5 36.5z" />
    <glyph glyph-name="u" unicode="u" horiz-adv-x="1062" 
d="M72 840l6 45q164 4 256 10q-2 -46 -6.5 -115t-6.5 -126t-2 -128v-233q0 -95 43.5 -144t118.5 -49q109 0 173.5 70t64.5 184v144q0 129 -6 192q-4 62 -26 94t-73 56l7 45q164 4 256 10q-2 -46 -6.5 -115t-6.5 -126t-2 -128v-88q0 -121 6 -184q4 -62 24 -84t77 -33v-43
q-102 -47 -193 -127l-43 10l-6 189l-2 2q-38 -88 -112.5 -144.5t-163.5 -56.5q-158 0 -232 121q-41 71 -41 186v224q0 129 -6 192t-27 95t-71 55z" />
    <glyph glyph-name="v" unicode="v" horiz-adv-x="868" 
d="M6 840l8 47q59 -6 166 -6q83 0 142 6l6 -47q-62 -30 -62 -82q0 -9 1 -18t2.5 -17t5 -21.5t6.5 -23t10 -30t12 -34.5t16 -44t19 -52l115 -313l131 311q63 148 63 215q0 37 -14 61.5t-58 47.5l9 47q59 -6 131 -6q82 0 141 6l6 -47q-28 -24 -47.5 -54t-50.5 -94
q-18 -37 -47 -102.5t-33 -75.5l-242 -551h-53l-205 551q-79 196 -84 207q-23 51 -40 72.5t-54 46.5z" />
    <glyph glyph-name="w" unicode="w" horiz-adv-x="1378" 
d="M6 840l8 47q59 -6 166 -6q83 0 142 6l6 -47q-62 -30 -62 -82q0 -33 12 -72.5t56 -167.5l108 -313l123 311q58 153 58 209q0 38 -21.5 63t-64.5 52l8 47q59 -6 166 -6q82 0 141 6l6 -47q-61 -30 -61 -82q0 -30 12 -71t55 -169l109 -313l121 311q63 162 63 215
q0 37 -14 61.5t-58 47.5l9 47q59 -6 131 -6q82 0 141 6l6 -47q-28 -24 -47.5 -54t-50.5 -94q-37 -75 -80 -178l-227 -551h-58l-221 612l-252 -612h-57l-199 551q-1 1 -30.5 82t-49.5 125q-23 51 -40 72.5t-54 46.5z" />
    <glyph glyph-name="x" unicode="x" horiz-adv-x="874" 
d="M20 47q57 44 117 117q8 11 72.5 90.5t93.5 118.5l62 80l-41 61q-88 134 -146 209q-54 72 -121 117l9 47q59 -4 157 -4q95 0 154 4l6 -45q-32 -14 -45.5 -26.5t-13.5 -29.5q0 -22 24 -62.5t117 -180.5q139 185 139 239q0 18 -10 30.5t-39 29.5l6 45q59 -4 121 -4
q78 0 137 4l8 -47q-55 -43 -118 -119q-42 -54 -156 -207l-35 -47l66 -96q108 -163 143 -209q35 -47 60 -72t61 -45l-8 -47q-88 6 -150 6q-74 0 -162 -6l-6 45q32 14 45 26t13 29q0 20 -21 59.5t-90 141.5l-51 76l-29 -35q-63 -76 -96 -127.5t-39 -70.5t-6 -38
q0 -18 8.5 -30.5t36.5 -28.5l-6 -45q-59 4 -121 4q-78 0 -137 -4z" />
    <glyph glyph-name="y" unicode="y" horiz-adv-x="892" 
d="M-23 -479q0 35 22 59.5t56 24.5q20 0 46 -5.5t44 -5.5q59 0 105 99l147 319l-202 502q-3 8 -32.5 85.5t-49.5 121.5q-23 51 -40.5 72.5t-54.5 46.5l9 47q89 -6 166 -6q53 0 141 6l6 -47q-61 -27 -61 -82q0 -38 13 -84t56 -156l127 -319l135 317q64 150 64 215
q0 36 -14.5 61t-57.5 48l8 47q59 -6 140 -6q74 0 133 6l6 -47q-27 -24 -47 -55t-51 -93q-18 -36 -47.5 -103.5t-32.5 -74.5l-363 -819q-58 -131 -119 -195q-65 -65 -155 -65q-41 0 -69 24.5t-28 61.5z" />
    <glyph glyph-name="z" unicode="z" horiz-adv-x="827" 
d="M51 78q144 193 144 194l364 521h-127q-86 0 -147 -9q-54 -8 -83.5 -36t-58.5 -103l-53 10q12 144 31 236q137 -10 239 -10h177q6 0 204 6l13 -53q-71 -95 -154 -216l-373 -530h158q88 0 160 10q66 10 94 62q23 34 55 123l56 -11q-12 -184 -29 -282q-12 0 -51.5 3t-89 5
t-111.5 2h-133q-96 0 -260 -4z" />
    <glyph glyph-name="braceleft" unicode="{" horiz-adv-x="819" 
d="M143 498v84q115 9 161 56.5t46 139.5q0 67 -18.5 225t-18.5 238q0 149 91.5 222t254.5 73v-98q-119 -4 -178 -53t-59 -136q0 -74 18.5 -230t18.5 -247q0 -94 -28 -148t-91 -83q63 -29 91 -83.5t28 -148.5q0 -91 -18.5 -247t-18.5 -230q0 -179 237 -188v-99
q-163 0 -254.5 73t-91.5 222q0 80 18.5 238t18.5 225q0 92 -46 139t-161 56z" />
    <glyph glyph-name="bar" unicode="|" horiz-adv-x="512" 
d="M209 -535v2075h94v-2075h-94z" />
    <glyph glyph-name="braceright" unicode="}" horiz-adv-x="819" 
d="M160 -356q237 9 237 188q0 74 -18.5 230t-18.5 247q0 94 28 148.5t91 83.5q-63 29 -91 83t-28 148q0 91 18.5 247t18.5 230q0 87 -59 136t-178 53v98q163 0 254.5 -73t91.5 -222q0 -80 -18.5 -238t-18.5 -225q0 -92 46 -139.5t161 -56.5v-84q-115 -9 -161 -56t-46 -139
q0 -67 18.5 -225t18.5 -238q0 -149 -91.5 -222t-254.5 -73v99z" />
    <glyph glyph-name="asciitilde" unicode="~" 
d="M117 643q86 180 237 180q44 0 88.5 -14.5t114.5 -48.5q48 -23 71.5 -33t51 -18.5t47.5 -8.5q51 0 88.5 29t75.5 98l76 -39q-87 -182 -240 -182q-43 0 -87.5 14.5t-115.5 49.5q-124 59 -170 59q-51 0 -89.5 -30t-76.5 -99z" />
    <glyph glyph-name="nbspace" unicode="&#xa0;" horiz-adv-x="512" 
 />
    <glyph glyph-name="exclamdown" unicode="&#xa1;" horiz-adv-x="512" 
d="M135 1346q0 52 34 86t87 34t87 -34t34 -86t-34.5 -86.5t-86.5 -34.5t-86.5 34.5t-34.5 86.5zM150 88q0 25 14 162q45 460 63 819h58q18 -359 63 -819q14 -137 14 -162q0 -47 -32 -80t-74 -33t-74 34t-32 79z" />
    <glyph glyph-name="cent" unicode="&#xa2;" 
d="M158 434q0 211 133.5 355.5t326.5 144.5q14 0 54 -4l112 342l88 -29l-110 -338q47 -20 88 -55q74 -65 74 -152q0 -39 -23.5 -64.5t-62.5 -25.5q-75 0 -90 86q-8 44 -31 82l-217 -649q46 -18 100 -18q97 0 162 39t129 131l49 -31q-48 -126 -139.5 -203.5t-220.5 -77.5
q-59 0 -127 21l-119 -350l-88 28l121 359q-98 60 -153.5 169.5t-55.5 239.5zM319 467q0 -186 101 -287l219 654q-21 8 -53 8q-120 0 -193.5 -101t-73.5 -274z" />
    <glyph glyph-name="sterling" unicode="&#xa3;" 
d="M45 61q0 63 78 91q117 40 182.5 111t65.5 161q0 124 -72 274h-213v93h178q-20 57 -30 88.5t-19.5 80.5t-9.5 93q0 111 51 205.5t145 151t211 56.5q164 0 269 -92q80 -71 80 -166q0 -47 -26 -78.5t-71 -31.5q-41 0 -68 27.5t-36 78.5q-15 86 -59 126t-128 40
q-98 0 -158.5 -74.5t-60.5 -197.5q0 -49 14 -105.5t28.5 -93t45.5 -108.5h361v-93h-324q41 -121 41 -213q0 -101 -43 -172.5t-133 -122.5l4 -6q63 23 111 23q45 0 96.5 -17.5t90 -39t85.5 -39t84 -17.5q44 0 72 20.5t28 51.5q0 21 -9.5 38t-23.5 30.5t-28 27.5t-23.5 35.5
t-9.5 48.5q0 41 28.5 68.5t76.5 27.5t80 -50.5t32 -133.5q0 -101 -59 -178q-39 -54 -102.5 -85.5t-128.5 -31.5q-51 0 -106.5 20t-96 44.5t-92.5 44.5t-97 20q-37 0 -70.5 -16t-54.5 -36t-47.5 -36t-52.5 -16q-38 0 -62 20.5t-24 52.5z" />
    <glyph glyph-name="yen" unicode="&#xa5;" 
d="M35 1389l6 51q120 -6 192 -6q67 0 187 6l6 -51q-45 -19 -63.5 -35.5t-18.5 -38.5q0 -28 41.5 -104t130.5 -220l66 -106l61 106q150 255 150 314q0 58 -78 84l6 51q120 -6 174 -6q50 0 152 6l6 -51q-46 -25 -81.5 -63.5t-76.5 -104.5q-63 -96 -143 -230l-121 -207v-43h280
v-92h-280v-153h280v-93h-280q0 -131 4 -186q0 -71 22 -106.5t84 -61.5l-6 -51q-120 6 -184 6q-66 0 -186 -6l-7 51q60 25 80 59.5t25 108.5q4 110 4 186h-293v93h293v153h-293v92h293v41l-131 209q-16 26 -67 109.5t-74 120.5q-43 68 -77.5 105.5t-82.5 62.5z" />
    <glyph glyph-name="brokenbar" unicode="&#xa6;" horiz-adv-x="512" 
d="M209 188h94v-723h-94v723zM209 815v725h94v-725h-94z" />
    <glyph glyph-name="section" unicode="&#xa7;" horiz-adv-x="1024" 
d="M94 -166l64 14q43 -125 71 -170q48 -81 103 -116t151 -35q120 0 190 62t70 173q0 115 -84 199q-8 8 -16.5 16t-15.5 14.5t-19.5 15.5t-20 14.5t-26 18t-28 19t-36.5 24.5l-42 28q-136 91 -187.5 131.5t-85.5 85.5q-38 51 -53.5 96.5t-15.5 114.5q0 77 47.5 152.5
t118.5 121.5q-40 34 -66 72q-40 52 -58 103t-18 122q0 151 115.5 253.5t288.5 102.5q174 0 333 -84q5 -132 5 -141q0 -13 -5 -145l-57 -4q-30 120 -86 186q-41 49 -89.5 71.5t-119.5 22.5q-101 0 -170 -65t-69 -164q0 -52 17.5 -93t59.5 -85q28 -29 60.5 -53.5t134.5 -92.5
q114 -77 166.5 -120.5t99.5 -94.5q99 -111 99 -248q0 -173 -148 -274l23 -23q98 -110 98 -260q0 -163 -116.5 -263.5t-309.5 -100.5q-192 0 -332 67q-24 133 -41 332zM252 573q0 -78 70 -155q18 -20 42.5 -39.5t43 -33t86.5 -58.5q22 -15 34 -23q145 -97 187 -129
q67 74 67 182t-90 191q-77 71 -211 160q-83 55 -135 92q-94 -71 -94 -187z" />
    <glyph glyph-name="dieresis" unicode="&#xa8;" horiz-adv-x="512" 
d="M-20 1333q0 43 29.5 73t72.5 30q44 0 74 -30t30 -73q0 -44 -30 -74t-74 -30q-43 0 -72.5 30t-29.5 74zM326 1333q0 43 29.5 73t72.5 30q44 0 74 -30t30 -73q0 -44 -30 -74t-74 -30q-43 0 -72.5 30t-29.5 74z" />
    <glyph glyph-name="copyright" unicode="&#xa9;" horiz-adv-x="1724" 
d="M106 719q0 157 59 296.5t160 238t239.5 155.5t293.5 57q216 0 390.5 -98.5t272 -269t97.5 -379.5q0 -156 -58.5 -296t-158 -239.5t-236.5 -158t-288 -58.5q-167 0 -310.5 57t-244.5 156t-158.5 238.5t-57.5 300.5zM225 719q0 -189 83 -336.5t232 -229t339 -81.5
q169 0 311.5 84t226.5 233t84 330t-82.5 328t-229.5 231t-331 84q-131 0 -247.5 -48t-201.5 -132t-134.5 -204.5t-49.5 -258.5zM418 719q0 133 64.5 236.5t173 158.5t239.5 55q157 0 279 -61q4 -74 4 -94q0 -27 -4 -101l-56 -2q-18 76 -51 117q-52 70 -172 70
q-154 0 -252 -105t-98 -272q0 -88 31 -162.5t83 -123t117 -75t135 -26.5q71 0 113.5 26t73.5 84q17 32 43 113l55 -10q-9 -120 -25 -213q-125 -70 -276 -70q-92 0 -176 29.5t-152 84.5t-108.5 143.5t-40.5 197.5z" />
    <glyph glyph-name="ordfeminine" unicode="&#xaa;" horiz-adv-x="606" 
d="M57 633q0 86 84 145q78 52 219 86v68q0 66 -24 100q-27 37 -84 37q-55 0 -131 -55l-35 47q29 46 76.5 76t107.5 30q109 0 162 -77q41 -62 41 -154v-137q0 -99 2 -140q4 -82 68 -106l-13 -49q-76 3 -112.5 23.5t-48.5 70.5q-57 -106 -158 -106q-68 0 -111 40.5t-43 100.5z
M170 657q0 -30 17 -49.5t49 -19.5q46 0 85 38.5t39 104.5v74q-10 -4 -35 -15.5t-38 -15.5q-117 -46 -117 -117z" />
    <glyph glyph-name="guillemotleft" unicode="&#xab;" horiz-adv-x="880" 
d="M61 479q0 36 35 64l328 297l39 -39l-225 -322l225 -321l-39 -39l-328 297q-35 28 -35 63zM430 479q0 36 35 64l328 297l38 -39l-225 -322l225 -321l-38 -39l-328 297q-35 28 -35 63z" />
    <glyph glyph-name="logicalnot" unicode="&#xac;" 
d="M133 823v92h819v-399h-92v307h-727z" />
    <glyph glyph-name="uni00AD" unicode="&#xad;" horiz-adv-x="512" 
d="M0 424v113h512v-113h-512z" />
    <glyph glyph-name="registered" unicode="&#xae;" horiz-adv-x="1724" 
d="M106 719q0 157 59 296.5t160 238t239.5 155.5t293.5 57q216 0 390.5 -98.5t272 -269t97.5 -379.5q0 -156 -58.5 -296t-158 -239.5t-236.5 -158t-288 -58.5q-167 0 -310.5 57t-244.5 156t-158.5 238.5t-57.5 300.5zM225 719q0 -189 83 -336.5t232 -229t339 -81.5
q169 0 311.5 84t226.5 233t84 330t-82.5 328t-229.5 231t-331 84q-131 0 -247.5 -48t-201.5 -132t-134.5 -204.5t-49.5 -258.5zM535 352q32 14 45 35.5t16 58.5q2 37 2 136v323q0 94 -2 135q-2 39 -14 60.5t-47 34.5l2 43q49 -2 120 -2q53 0 98 1t54 1q122 0 193 -65.5
t71 -158.5q0 -150 -133 -215q93 -171 203 -311q60 -76 112 -90v-37q-30 -12 -71 -12q-86 0 -162 106q-95 129 -186 316q-16 -2 -58 -2q-47 0 -63 2v-129q0 -58 4 -136q2 -40 14 -60t49 -34l-4 -45q-78 4 -121 4q-42 0 -120 -4zM715 774h47q94 0 144 44.5t50 123.5
q0 80 -46.5 126t-131.5 46q-37 0 -46.5 -9.5t-12.5 -43.5q-4 -74 -4 -123v-164z" />
    <glyph glyph-name="macron" unicode="&#xaf;" horiz-adv-x="512" 
d="M-20 1264v110h552v-110h-552z" />
    <glyph glyph-name="degree" unicode="&#xb0;" horiz-adv-x="737" 
d="M94 1171q0 114 80.5 195.5t194.5 81.5q113 0 193.5 -81.5t80.5 -195.5q0 -113 -80.5 -192.5t-193.5 -79.5q-114 0 -194.5 79t-80.5 193zM188 1169q0 -77 50.5 -129.5t126.5 -52.5q78 0 130 52.5t52 129.5q0 78 -52.5 133.5t-129.5 55.5q-75 0 -126 -55.5t-51 -133.5z" />
    <glyph glyph-name="plusminus" unicode="&#xb1;" 
d="M133 475v92h365v228h-365v92h365v237h92v-237h362v-92h-362v-228h362v-92h-819z" />
    <glyph glyph-name="twosuperior" unicode="&#xb2;" horiz-adv-x="632" 
d="M55 735q184 119 255 213t71 191q0 57 -33.5 93t-81.5 36q-74 0 -164 -90l-39 57q29 57 88.5 99t133.5 42q47 0 92.5 -18t73.5 -51q55 -62 55 -156q0 -96 -62.5 -186t-205.5 -183h184q42 0 66 14t57 52l35 -21q-22 -84 -60 -155q-55 4 -155 4h-125q-110 0 -174 -6z" />
    <glyph glyph-name="threesuperior" unicode="&#xb3;" horiz-adv-x="589" 
d="M43 1249q28 51 84.5 89t126.5 38q106 0 162 -59q53 -59 53 -135q0 -110 -143 -199q86 -20 140 -88.5t54 -155.5q0 -135 -108.5 -227.5t-300.5 -118.5l-13 60q297 69 297 258q0 79 -61 132.5t-164 53.5l-8 51q103 59 145.5 109t42.5 106q0 46 -32.5 75.5t-79.5 29.5
q-78 0 -160 -76z" />
    <glyph glyph-name="acute" unicode="&#xb4;" horiz-adv-x="512" 
d="M119 1030l94 391q27 109 102 109q35 0 56.5 -24t21.5 -60q0 -37 -31 -90l-196 -346z" />
    <glyph glyph-name="mu" unicode="&#xb5;" horiz-adv-x="1062" 
d="M72 840l6 45q164 4 256 10q-2 -46 -6.5 -115t-6.5 -126t-2 -128v-233q0 -95 43.5 -144t118.5 -49q109 0 173.5 70t64.5 184v144q0 129 -6 192q-4 62 -26 94t-73 56l7 45q164 4 256 10q-2 -46 -6.5 -115t-6.5 -126t-2 -128v-88q0 -121 6 -184q4 -62 24 -84t77 -33v-43
q-102 -47 -193 -127l-43 10l-6 189l-2 2q-38 -88 -112.5 -144.5t-163.5 -56.5q-86 0 -150 39l-4 -4l4 -74q13 -208 51 -393q-59 -45 -127 -78l-47 11v1030q0 129 -6 192t-27 95t-71 55z" />
    <glyph glyph-name="paragraph" unicode="&#xb6;" horiz-adv-x="1024" 
d="M115 999q0 111 43 196.5t118.5 136.5t169.5 76.5t203 25.5q124 0 244 6l6 -51q-91 -25 -119 -59.5t-28 -108.5q-4 -68 -4 -230v-964q0 -263 -92.5 -408t-231.5 -145q-83 0 -124.5 30t-41.5 82q0 38 28.5 65t71.5 27q32 0 56 -20t42.5 -39.5t39.5 -19.5q33 0 53 25.5
t32.5 103.5t12.5 217v608q-94 2 -177.5 29t-152 79.5t-109 139.5t-40.5 198z" />
    <glyph glyph-name="periodcentered" unicode="&#xb7;" horiz-adv-x="512" 
d="M135 479q0 53 34.5 87t86.5 34t86.5 -34t34.5 -87t-34.5 -87t-86.5 -34t-86.5 34t-34.5 87z" />
    <glyph glyph-name="cedilla" unicode="&#xb8;" horiz-adv-x="512" 
d="M102 -330q0 20 14 33.5t36 13.5q33 0 57 -39q20 -32 59 -32q22 0 35.5 12t13.5 33q0 34 -27.5 62.5t-105.5 64.5l-8 22l94 193h54l-50 -131q134 -67 134 -176q0 -62 -45 -103t-121 -41q-60 0 -100 26t-40 62z" />
    <glyph glyph-name="onesuperior" unicode="&#xb9;" horiz-adv-x="456" 
d="M84 715q47 17 64 40t20 68q4 82 4 150v90q0 61 -4 151q-3 46 -19 68.5t-65 38.5l4 41q77 -6 141 -6q67 0 140 6l4 -41q-49 -16 -64 -38t-18 -69q-6 -68 -6 -151v-90q0 -85 6 -150q3 -49 18 -70t64 -38l-4 -41q-49 4 -142 4q-88 0 -139 -4z" />
    <glyph glyph-name="ordmasculine" unicode="&#xba;" horiz-adv-x="763" 
d="M57 829q0 140 94 240t228 100q138 0 229.5 -97.5t91.5 -242.5q0 -140 -92 -240t-223 -100q-140 0 -234 98.5t-94 241.5zM186 842q0 -128 55.5 -202.5t147.5 -74.5q81 0 131.5 68t50.5 188q0 124 -55 199.5t-141 75.5q-83 0 -136 -65.5t-53 -188.5z" />
    <glyph glyph-name="guillemotright" unicode="&#xbb;" horiz-adv-x="880" 
d="M49 158l225 321l-225 322l39 39l328 -297q35 -28 35 -64q0 -35 -35 -63l-328 -297zM418 158l225 321l-225 322l39 39l327 -297q35 -28 35 -64q0 -35 -35 -63l-327 -297z" />
    <glyph glyph-name="onequarter" unicode="&#xbc;" horiz-adv-x="1429" 
d="M84 715q47 17 64 40t20 68q4 82 4 150v90q0 61 -4 151q-3 46 -19 68.5t-65 38.5l4 41q77 -6 141 -6q67 0 140 6l4 -41q-49 -16 -64 -38t-18 -69q-6 -68 -6 -151v-90q0 -85 6 -150q3 -49 18 -70t64 -38l-4 -41q-49 4 -142 4q-88 0 -139 -4zM137 -49l955 1503l84 -57
l-955 -1503zM672 45q230 360 454 660l95 -19q-4 -86 -4 -215v-365h49q42 0 66 13t54 51l39 -23l-61 -151q-57 4 -147 4q0 -67 3.5 -159t4.5 -138l-90 -18l-35 16v299h-158q-134 0 -260 -4zM813 106h287v433q-179 -251 -287 -433z" />
    <glyph glyph-name="onehalf" unicode="&#xbd;" horiz-adv-x="1488" 
d="M84 715q47 17 64 40t20 68q4 82 4 150v90q0 61 -4 151q-3 46 -19 68.5t-65 38.5l4 41q77 -6 141 -6q67 0 140 6l4 -41q-49 -16 -64 -38t-18 -69q-6 -68 -6 -151v-90q0 -85 6 -150q3 -49 18 -70t64 -38l-4 -41q-49 4 -142 4q-88 0 -139 -4zM137 -49l955 1503l84 -57
l-955 -1503zM911 59q184 119 255 213t71 191q0 57 -33.5 93t-81.5 36q-74 0 -164 -90l-38 57q30 57 88.5 99t132.5 42q47 0 92.5 -18t73.5 -51q55 -62 55 -156q0 -96 -62.5 -186t-205.5 -183h184q42 0 66 14t57 52l35 -20q-23 -86 -60 -156q-55 4 -155 4h-125
q-110 0 -174 -6z" />
    <glyph glyph-name="threequarters" unicode="&#xbe;" horiz-adv-x="1644" 
d="M43 1249q28 51 84.5 89t126.5 38q106 0 162 -59q53 -59 53 -135q0 -110 -143 -199q86 -20 140 -88.5t54 -155.5q0 -135 -108.5 -227.5t-300.5 -118.5l-13 60q297 69 297 258q0 79 -61 132.5t-164 53.5l-8 51q103 59 145.5 109t42.5 106q0 46 -32.5 75.5t-79.5 29.5
q-78 0 -160 -76zM352 -49l955 1503l84 -57l-955 -1503zM887 45q230 360 454 660l95 -19q-4 -86 -4 -215v-365h49q42 0 66.5 13.5t54.5 50.5l38 -23l-61 -151q-57 4 -147 4q0 -67 3.5 -159t4.5 -138l-90 -18l-35 16v299h-158q-134 0 -260 -4zM1028 106h287v433
q-179 -251 -287 -433z" />
    <glyph glyph-name="questiondown" unicode="&#xbf;" horiz-adv-x="737" 
d="M86 477q0 155 90.5 232t253.5 79q17 214 19 281h53q19 -218 45 -391l-27 -39q-138 0 -216 -19.5t-108 -57.5t-30 -103q0 -66 27 -121.5t68 -88.5t86 -51t85 -18q21 0 50 4t40 4q52 0 84.5 -25.5t32.5 -74.5t-38.5 -76.5t-90.5 -27.5q-103 0 -200.5 65.5t-160.5 181
t-63 246.5zM358 1346q0 52 34 86t87 34t87 -34t34 -86t-34 -86.5t-87 -34.5t-87 34.5t-34 86.5z" />
    <glyph glyph-name="Agrave" unicode="&#xc0;" horiz-adv-x="1288" 
d="M4 49q50 26 80.5 62.5t60.5 105.5q37 81 93 229l395 1024h39l379 -1024q61 -161 92 -229q30 -69 60.5 -105.5t80.5 -62.5l-6 -51q-80 6 -168 6q-127 0 -207 -6l-6 51q43 20 60.5 37t17.5 45q0 44 -87 284q-7 20 -11 31l-17 41h-500l-14 -41q-84 -219 -84 -313
q0 -30 17 -48.5t61 -35.5l-6 -51q-80 6 -172 6q-80 0 -152 -6zM354 1714q0 37 22.5 60.5t59.5 23.5t88 -31l342 -208l-18 -50l-381 107q-63 18 -88 38t-25 60zM395 575h434l-211 580z" />
    <glyph glyph-name="Aacute" unicode="&#xc1;" horiz-adv-x="1288" 
d="M4 49q50 26 80.5 62.5t60.5 105.5q37 81 93 229l395 1024h39l379 -1024q61 -161 92 -229q30 -69 60.5 -105.5t80.5 -62.5l-6 -51q-80 6 -168 6q-127 0 -207 -6l-6 51q43 20 60.5 37t17.5 45q0 44 -87 284q-7 20 -11 31l-17 41h-500l-14 -41q-84 -219 -84 -313
q0 -30 17 -48.5t61 -35.5l-6 -51q-80 6 -172 6q-80 0 -152 -6zM395 575h434l-211 580zM436 1559l342 208q51 31 88 31t59.5 -23.5t22.5 -60.5q0 -39 -26 -61t-86 -37l-381 -107z" />
    </font>
</defs>
</svg>
